古哥論壇

 找回密碼
 注冊(分享大片)
查看: 384|回復: 10
打印 上一主題 下一主題

[1080P] [心慌方2:超立方體]Cube.2.Hypercube.2002.1080p.BluRay.x264-PSYCHD 7.65GB

[復制鏈接]
跳轉到指定樓層
1#
發表于 2019-6-18 21:58:07 | 只看該作者 回帖獎勵 |倒序瀏覽 |閱讀模式
4K天堂


◎譯  名 心慌方2:超立方體 / Cube2: Hypercube / 異次元殺陣2:超級立方體 / 心慌方·超立方體
◎片  名 Cube 2: Hypercube
◎年  代 2002
◎產  地 加拿大
◎類  別 科幻 / 懸疑 / 驚悚 / 恐怖
◎語  言 英語
◎上映日期 2002-04-15(美國)
◎IMDb評分 5.6/10 from 58471 users
◎IMDb鏈接 http://www.imdb.com/title/tt0285492
◎豆瓣評分 6.7/10 from 47351 users
◎藍光高清   http://www.4ktt.com
◎片  長 94分鐘
◎導  演 Andrzej Sekula
◎編  劇 Sean Hood / 厄尼·巴巴拉什 Ernie Barbarash
◎主  演 卡瑞·瑪切特 Kari Matchett
      Geraint Wyn Davies
      Grace Lynn Kung
      Matthew Ferguson

◎簡  介
  8個身份不同且互不相識的陌生人在同一時間醒來,發覺自己身處在一個立方體形狀的房間內,沒有人記得他們是怎么來到這的,也沒有人知曉自己身處何方。幾個人經過調查發現,立方體的上下左右四個面各有一道門,聯通著另外一處相同的立方體,而不同的只是各個房間內的機關陷阱。整個建筑的結構 仿佛一個布滿危機的魔方大廈,并且充斥著現代科學難解的超自然現象,8人歷盡千難萬險,陸續有人橫遭不測,究竟誰才能從噩夢中掙脫?
本片是小成本高口碑加拿大科幻驚悚片《立方體》(又名異次元殺陣)時隔四年后的續集,由好萊塢B級片王者獅門影業制作發行。影片延續了前代的故事架構,并進一步的引入了四維空間的概念,使得電影整體風格更加抽象和奇特。

Video
ID : 1
Format : AVC
Format/Info : Advanced Video Codec
Format profile : [email protected]
Format settings, CABAC : Yes
Format settings, ReFrames : 4 frames
Codec ID : V_MPEG4/ISO/AVC
Duration : 1h 34mn
Bit rate : 11.4 Mbps
Width : 1 920 pixels
Height : 1 080 pixels
Display aspect ratio : 16:9
Frame rate mode : Constant
Frame rate : 23.976 (24000/1001) fps
Color space : YUV
Chroma subsampling : 4:2:0
Bit depth : 8 bits
Scan type : Progressive
Bits/(Pixel*Frame) : 0.230
Stream size : 7.37 GiB (96%)
Writing library : x264 core 148 r2665 a01e339
Encoding settings : cabac=1 / ref=4 / deblock=1:-3:-3 / analyse=0x3:0x113 / me=umh / subme=8 / psy=1 / psy_rd=1.00:0.00 / mixed_ref=1 / me_range=32 / chroma_me=1 / trellis=1 / 8x8dct=1 / cqm=0 / deadzone=21,11 / fast_pskip=1 / chroma_qp_offset=-2 / threads=12 / lookahead_threads=2 / sliced_threads=0 / nr=0 / decimate=1 / interlaced=0 / bluray_compat=0 / constrained_intra=0 / bframes=3 / b_pyramid=2 / b_adapt=2 / b_bias=0 / direct=3 / weightb=1 / open_gop=0 / weightp=2 / keyint=240 / keyint_min=24 / scenecut=40 / intra_refresh=0 / rc_lookahead=50 / rc=2pass / mbtree=1 / bitrate=11433 / ratetol=1.0 / qcomp=0.60 / qpmin=0 / qpmax=69 / qpstep=4 / cplxblur=20.0 / qblur=0.5 / ip_ratio=1.40 / aq=3:0.80
Language : English
Default : Yes
Forced : No
Statistics Tags Issue : no_variable_data 1970-01-01 00:00:00 / no_variable_data 2010-02-22 21:41:29
FromStats_BitRate : 11433087
FromStats_Duration : 01:34:12.647000000
FromStats_FrameCount : 135528
FromStats_StreamSize : 8078400875

Audio
ID : 2
Format : AC-3
Format/Info : Audio Coding 3
Mode extension : CM (complete main)
Format settings, Endianness : Big
Codec ID : A_AC3
Duration : 1h 34mn
Bit rate mode : Constant
Bit rate : 192 Kbps
Channel(s) : 2 channels
Channel positions : Front: L R
Sampling rate : 48.0 KHz
Frame rate : 31.250 fps (1536 spf)
Compression mode : Lossy
Stream size : 129 MiB (2%)
Language : English
Default : Yes
Forced : No
Statistics Tags Issue : no_variable_data 1970-01-01 00:00:00 / no_variable_data 2010-02-22 21:41:29
FromStats_BitRate : 191985
FromStats_Duration : 01:34:13.760000000
FromStats_FrameCount : 176680
FromStats_StreamSize : 135680000





Cube.2.Hypercube.2002.1080p.BluRay.x264-PSYCHD.torrent (77.12 KB, 下載次數: 50)


提示:如迅雷下載提示"任務出錯"、"因版權無法下載",請更換【迅雷5】,提取碼: ai7u
古哥影視論壇www.tdtiyl.tw 高清電影,藍光電影,最新電影,電影天堂,影視帝國,人人影視
點我免費領影視幣
2#
發表于 2019-6-19 09:05:14 | 只看該作者
喜歡這個系列
古哥影視論壇www.tdtiyl.tw 高清電影,藍光電影,最新電影,電影天堂,影視帝國,人人影視
點我免費領影視幣
回復 支持 反對

使用道具 舉報

3#
發表于 2019-6-19 17:30:59 | 只看該作者
謝謝樓主分享·
古哥影視論壇www.tdtiyl.tw 高清電影,藍光電影,最新電影,電影天堂,影視帝國,人人影視
點我免費領影視幣
回復 支持 反對

使用道具 舉報

4#
發表于 2019-6-19 22:30:41 | 只看該作者
回帖是美德,謝謝分享!!
古哥影視論壇www.tdtiyl.tw 高清電影,藍光電影,最新電影,電影天堂,影視帝國,人人影視
點我免費領影視幣
回復 支持 反對

使用道具 舉報

5#
發表于 2019-6-20 11:12:02 | 只看該作者
比較的科幻,不過挺燒腦,樓主辛苦
古哥影視論壇www.tdtiyl.tw 高清電影,藍光電影,最新電影,電影天堂,影視帝國,人人影視
點我免費領影視幣
回復 支持 反對

使用道具 舉報

6#
發表于 2019-6-22 01:06:32 | 只看該作者
超級經典的科幻片
古哥影視論壇www.tdtiyl.tw 高清電影,藍光電影,最新電影,電影天堂,影視帝國,人人影視
點我免費領影視幣
回復 支持 反對

使用道具 舉報

7#
發表于 2019-6-22 10:20:46 | 只看該作者
謝謝樓主分享。。。。。。
古哥影視論壇www.tdtiyl.tw 高清電影,藍光電影,最新電影,電影天堂,影視帝國,人人影視
點我免費領影視幣
回復 支持 反對

使用道具 舉報

8#
發表于 2019-6-22 12:07:42 | 只看該作者
四維空間的概念我無法理解
古哥影視論壇www.tdtiyl.tw 高清電影,藍光電影,最新電影,電影天堂,影視帝國,人人影視
點我免費領影視幣
回復 支持 反對

使用道具 舉報

9#
發表于 2019-6-25 16:15:57 | 只看該作者
月光光,心慌慌,國外的恐怖片沒中國的文化背景,不太看得懂喲
古哥影視論壇www.tdtiyl.tw 高清電影,藍光電影,最新電影,電影天堂,影視帝國,人人影視
點我免費領影視幣
回復 支持 反對

使用道具 舉報

10#
發表于 2019-6-29 16:29:48 | 只看該作者
加拿大科幻驚悚片,謝謝樓主分享
古哥影視論壇www.tdtiyl.tw 高清電影,藍光電影,最新電影,電影天堂,影視帝國,人人影視
點我免費領影視幣
回復 支持 反對

使用道具 舉報

11#
發表于 7 天前 | 只看該作者
感謝樓主分享
古哥影視論壇www.tdtiyl.tw 高清電影,藍光電影,最新電影,電影天堂,影視帝國,人人影視
點我免費領影視幣
回復 支持 反對

使用道具 舉報

您需要登錄后才可以回帖 登錄 | 注冊(分享大片)

本版積分規則

影視帝國免責聲明
本站提供網上學習交流和自由討論使用,所有資源均來自互聯網公開渠道,發布和個人言論并不代表本站立場,本站不負任何責任.
如發現有侵權行為,請與我們聯系.我們將立刻從網站上刪除,并向所有持版權者致最深歉意.
影視帝國論壇已經安全運行

QQ|小黑屋|手機版|Archiver|古哥論壇 ( 蘇ICP備12074540號 )

GMT+8, 2019-7-8 03:59 , Processed in 0.218397 second(s), 21 queries , Gzip On.

Powered by Discuz! X3.2

© 2001-2013 Comsenz Inc.

快速回復 返回頂部 返回列表
6肖中特期期准最新