古哥論壇

 找回密碼
 注冊(分享大片)
查看: 423|回復: 17
打印 上一主題 下一主題

[1080P] [窮山惡水/不毛之地]Badlands.1973.1080p.BluRay.X264-AMIABLE 7.65GB

[復制鏈接]
跳轉到指定樓層
1#
發表于 2019-6-18 22:02:09 | 只看該作者 回帖獎勵 |倒序瀏覽 |閱讀模式
4K天堂
本帖最后由 人人影視 于 2019-6-18 22:13 編輯


◎譯  名 窮山惡水 / 不毛之地 / 惡土 / 瘋狂假期
◎片  名 Badlands
◎年  代 1973
◎產  地 美國
◎類  別 劇情 / 愛情 / 驚悚 / 犯罪
◎語  言 英語 / 西班牙語
◎上映日期 1973-10-13(紐約電影節)
◎IMDb評分 7.9/10 from 58487 users
◎IMDb鏈接 http://www.imdb.com/title/tt0069762
◎豆瓣評分 7.8/10 from 2461 users
◎藍光高清   http://www.4ktt.com
◎片  長 94分鐘
◎導  演 泰倫斯·馬力克 Terrence Malick
◎編  劇 泰倫斯·馬力克 Terrence Malick
◎主  演 馬丁·辛 Martin Sheen
      茜茜·斯派塞克 Sissy Spacek
      沃倫·奧茨 Warren Oates

◎簡  介
  Holly(茜茜·斯派塞克 Sissy Spacek 飾)的母親去世后,父親帶著她搬家到南達科塔的一個小鎮。在那里,15歲的Holly認識了比她大10歲的混混Kit(馬丁·辛 Martin Sheen飾)。兩人很快成了戀人。Kit成天無所事事,打著零工,Holly的父親十分反對他倆的交往。一天,Kit闖入Holly的家,打包好Holly的行李,想帶上Holly遠走高飛,遭到Holly父親的制止。Kit開槍打死了Holly父親。隨后,Kit放了一把火燒了Holly家的房子,偽裝成三個人都葬身火海的假象。Kit開著車載著Holly去到一個原始森林,兩人過著原始人般的生活。但很快,有人發現了他們的蹤跡。他殺死這些人之后,又帶著Holly到處逃亡.....

Video
ID : 1
Format : AVC
Format/Info : Advanced Video Codec
Format profile : [email protected]
Format settings, CABAC : Yes
Format settings, ReFrames : 4 frames
Codec ID : V_MPEG4/ISO/AVC
Duration : 1 h 33 min
Bit rate : 11.0 Mb/s
Width : 1 920 pixels
Height : 1 040 pixels
Display aspect ratio : 1.85:1
Frame rate mode : Constant
Frame rate : 23.976 (24000/1001) FPS
Color space : YUV
Chroma subsampling : 4:2:0
Bit depth : 8 bits
Scan type : Progressive
Bits/(Pixel*Frame) : 0.230
Stream size : 7.08 GiB (93%)
Writing library : x264 core 129 r2245 bc13772
Encoding settings : cabac=1 / ref=4 / deblock=1:0:0 / analyse=0x3:0x113 / me=umh / subme=8 / psy=1 / psy_rd=1.00:0.00 / mixed_ref=1 / me_range=16 / chroma_me=1 / trellis=1 / 8x8dct=1 / cqm=0 / deadzone=21,11 / fast_pskip=1 / chroma_qp_offset=-2 / threads=12 / lookahead_threads=2 / sliced_threads=0 / nr=0 / decimate=1 / interlaced=0 / bluray_compat=0 / constrained_intra=0 / bframes=3 / b_pyramid=2 / b_adapt=2 / b_bias=0 / direct=3 / weightb=1 / open_gop=0 / weightp=2 / keyint=240 / keyint_min=24 / scenecut=40 / intra_refresh=0 / rc_lookahead=50 / rc=2pass / mbtree=1 / bitrate=11017 / ratetol=1.0 / qcomp=0.60 / qpmin=0 / qpmax=69 / qpstep=4 / cplxblur=20.0 / qblur=0.5 / ip_ratio=1.40 / aq=1:1.00
Language : English
Default : Yes
Forced : No

Audio
ID : 2
Format : AC-3
Format/Info : Audio Coding 3
Format settings, Endianness : Big
Codec ID : A_AC3
Duration : 1 h 33 min
Bit rate mode : Constant
Bit rate : 640 kb/s
Channel(s) : 6 channels
Channel(s)_Original : 1 channel
Channel positions : Front: C
Sampling rate : 48.0 kHz
Frame rate : 31.250 FPS (1536 spf)
Bit depth : 16 bits
Compression mode : Lossy
Stream size : 430 MiB (5%)
Language : English
Service kind : Complete Main
Default : Yes
Forced : No

Text
ID : 3
Format : UTF-8
Codec ID : S_TEXT/UTF8
Codec ID/Info : UTF-8 Plain Text
Language : English
Default : No
Forced : No





Badlands.1973.1080p.BluRay.X264-AMIABLE.torrent (76.98 KB, 下載次數: 166)


提示:如迅雷下載提示"任務出錯"、"因版權無法下載",請更換【迅雷5】,提取碼: ai7u
古哥影視論壇www.tdtiyl.tw 高清電影,藍光電影,最新電影,電影天堂,影視帝國,人人影視
點我免費領影視幣
2#
發表于 2019-6-18 22:08:11 | 只看該作者
先謝樓主分享
古哥影視論壇www.tdtiyl.tw 高清電影,藍光電影,最新電影,電影天堂,影視帝國,人人影視
點我免費領影視幣
回復 支持 反對

使用道具 舉報

3#
發表于 2019-6-18 22:55:48 | 只看該作者
謝謝樓主分享
古哥影視論壇www.tdtiyl.tw 高清電影,藍光電影,最新電影,電影天堂,影視帝國,人人影視
點我免費領影視幣
回復 支持 反對

使用道具 舉報

4#
發表于 2019-6-19 09:03:42 | 只看該作者
下載試試看
古哥影視論壇www.tdtiyl.tw 高清電影,藍光電影,最新電影,電影天堂,影視帝國,人人影視
點我免費領影視幣
回復 支持 反對

使用道具 舉報

5#
發表于 2019-6-19 10:41:45 | 只看該作者
非常喜歡謝謝分享
古哥影視論壇www.tdtiyl.tw 高清電影,藍光電影,最新電影,電影天堂,影視帝國,人人影視
點我免費領影視幣
回復 支持 反對

使用道具 舉報

6#
發表于 2019-6-19 11:04:15 | 只看該作者
謝謝分享下載了
古哥影視論壇www.tdtiyl.tw 高清電影,藍光電影,最新電影,電影天堂,影視帝國,人人影視
點我免費領影視幣
回復 支持 反對

使用道具 舉報

7#
發表于 2019-6-19 11:44:59 | 只看該作者
感謝樓主無私的分享
古哥影視論壇www.tdtiyl.tw 高清電影,藍光電影,最新電影,電影天堂,影視帝國,人人影視
點我免費領影視幣
回復 支持 反對

使用道具 舉報

8#
發表于 2019-6-19 11:56:36 | 只看該作者

感謝樓主分享
古哥影視論壇www.tdtiyl.tw 高清電影,藍光電影,最新電影,電影天堂,影視帝國,人人影視
點我免費領影視幣
回復 支持 反對

使用道具 舉報

9#
發表于 2019-6-19 14:12:13 | 只看該作者
先謝樓主分享
古哥影視論壇www.tdtiyl.tw 高清電影,藍光電影,最新電影,電影天堂,影視帝國,人人影視
點我免費領影視幣
回復 支持 反對

使用道具 舉報

10#
發表于 2019-6-19 18:57:44 | 只看該作者
感謝樓主分享!永遠支持古哥影視
古哥影視論壇www.tdtiyl.tw 高清電影,藍光電影,最新電影,電影天堂,影視帝國,人人影視
點我免費領影視幣
回復 支持 反對

使用道具 舉報

11#
發表于 2019-6-19 22:33:56 | 只看該作者
回帖是美德,謝謝分享!!
古哥影視論壇www.tdtiyl.tw 高清電影,藍光電影,最新電影,電影天堂,影視帝國,人人影視
點我免費領影視幣
回復 支持 反對

使用道具 舉報

12#
發表于 2019-6-20 11:13:32 | 只看該作者
回顧老片,還是比較經典的,樓主辛苦
古哥影視論壇www.tdtiyl.tw 高清電影,藍光電影,最新電影,電影天堂,影視帝國,人人影視
點我免費領影視幣
回復 支持 反對

使用道具 舉報

13#
發表于 2019-6-22 12:06:44 | 只看該作者
窮山惡水還是1973年的片子,那時候我們真的是窮山惡水
古哥影視論壇www.tdtiyl.tw 高清電影,藍光電影,最新電影,電影天堂,影視帝國,人人影視
點我免費領影視幣
回復 支持 反對

使用道具 舉報

14#
發表于 2019-6-24 17:55:34 | 只看該作者

樓主好人,一生平安
古哥影視論壇www.tdtiyl.tw 高清電影,藍光電影,最新電影,電影天堂,影視帝國,人人影視
點我免費領影視幣
回復 支持 反對

使用道具 舉報

15#
發表于 2019-6-25 15:02:13 | 只看該作者
多謝樓主分享
古哥影視論壇www.tdtiyl.tw 高清電影,藍光電影,最新電影,電影天堂,影視帝國,人人影視
點我免費領影視幣
回復 支持 反對

使用道具 舉報

16#
發表于 2019-6-26 23:22:32 | 只看該作者
感謝樓主分享
古哥影視論壇www.tdtiyl.tw 高清電影,藍光電影,最新電影,電影天堂,影視帝國,人人影視
點我免費領影視幣
回復 支持 反對

使用道具 舉報

17#
發表于 2019-6-27 23:24:17 | 只看該作者
看介紹,這片子中的人好野蠻
古哥影視論壇www.tdtiyl.tw 高清電影,藍光電影,最新電影,電影天堂,影視帝國,人人影視
點我免費領影視幣
回復 支持 反對

使用道具 舉報

18#
發表于 昨天 18:50 | 只看該作者
很多老片子也很有意思
古哥影視論壇www.tdtiyl.tw 高清電影,藍光電影,最新電影,電影天堂,影視帝國,人人影視
點我免費領影視幣
回復 支持 反對

使用道具 舉報

您需要登錄后才可以回帖 登錄 | 注冊(分享大片)

本版積分規則

影視帝國免責聲明
本站提供網上學習交流和自由討論使用,所有資源均來自互聯網公開渠道,發布和個人言論并不代表本站立場,本站不負任何責任.
如發現有侵權行為,請與我們聯系.我們將立刻從網站上刪除,并向所有持版權者致最深歉意.
影視帝國論壇已經安全運行

QQ|小黑屋|手機版|Archiver|古哥論壇 ( 蘇ICP備12074540號 )

GMT+8, 2019-7-8 04:01 , Processed in 0.212322 second(s), 21 queries , Gzip On.

Powered by Discuz! X3.2

© 2001-2013 Comsenz Inc.

快速回復 返回頂部 返回列表
6肖中特期期准最新