古哥論壇

 找回密碼
 注冊(分享大片)
查看: 388|回復: 13
打印 上一主題 下一主題

[1080P] [終極傻瓜/一個愚蠢的點子]A.Goofy.Movie.1995.720p.BluRay.X264-AMIABLE 4.37GB

[復制鏈接]
跳轉到指定樓層
1#
發表于 2019-6-18 22:16:12 | 只看該作者 回帖獎勵 |倒序瀏覽 |閱讀模式
4K天堂

◎譯  名 終極傻瓜 / 一個愚蠢的點子
◎片  名 A Goofy Movie
◎年  代 1995
◎產  地 美國
◎類  別 喜劇 / 愛情 / 動畫 / 歌舞 / 家庭 / 冒險
◎語  言 英語 / 西班牙語
◎上映日期 1995-10-26
◎IMDb評分 6.8/10 from 40738 users
◎IMDb鏈接 http://www.imdb.com/title/tt0113198
◎豆瓣評分 7.3/10 from 285 users
◎藍光高清   http://www.4ktt.com
◎片  長 78 分鐘
◎導  演 凱文 李瑪 (Kevin Lima)
◎編  劇 Brian Pimental / Chris Matheson (I) / Jymn Magon


◎簡  介
  《高飛家族》里的 Goofy 與 Max 父子在本片搭檔演出,Max 已是一個十足的青少年,他想與學校的女同學去參加舞會,不料老爸卻強拉他一同去釣魚,代溝的沖突使得這父子關系面臨考驗。本片當初以“電影版卡通”小品作品之姿,居然開創出三千五百多萬美金的票房,而成本不過是相等長度的電視卡通而已,獲利力之高真是讓人頗為意外。本片的主題其實還蠻發人深省的,是在探討親子兩代間的一些代溝問題,不單純只是一部搞笑片,雖然以夸張的卡通式表現手法,呈現的卻是親子情感細膩的一面。盡管“電影版卡通”由于成本的限制,制作手法沒辦法像“經典動畫”那樣的精致,但是本片故事情節的安排非常不錯,歌曲更是耐聽!難怪該組制作人馬在本片小兵立大功后,就被迪士尼由電視動畫部門升格成為電影制作部門了!他們第一部動畫電影作品就是1999年的《泰山》!


◎獲獎情況
  第23屆動畫安妮獎(1995)
  最佳動畫長片(提名)
  最佳配樂(提名) Patrick DeRemer / Roy Freeland
  最佳分鏡(提名) 布瑞恩·皮門托爾
  最佳藝術指導(提名) Fred Warter
  最佳個人成就(提名) 多米尼克·蒙法尼


Video
ID : 1
Format : AVC
Format/Info : Advanced Video Codec
Format profile : [email protected]
Format settings : CABAC / 5 Ref Frames
Format settings, CABAC : Yes
Format settings, ReFrames : 5 frames
Codec ID : V_MPEG4/ISO/AVC
Duration : 1 h 17 min
Bit rate : 7 732 kb/s
Width : 1 280 pixels
Height : 688 pixels
Display aspect ratio : 1.85:1
Frame rate mode : Constant
Frame rate : 23.976 (24000/1001) FPS
Color space : YUV
Chroma subsampling : 4:2:0
Bit depth : 8 bits
Scan type : Progressive
Bits/(Pixel*Frame) : 0.366
Stream size : 4.19 GiB (96%)
Writing library : x264 core 157 r2970 5493be8
Encoding settings : cabac=1 / ref=5 / deblock=1:1:-2 / analyse=0x3:0x113 / me=umh / subme=8 / psy=1 / psy_rd=0.50:0.00 / mixed_ref=1 / me_range=24 / chroma_me=1 / trellis=2 / 8x8dct=1 / cqm=0 / deadzone=21,11 / fast_pskip=1 / chroma_qp_offset=-2 / threads=21 / lookahead_threads=3 / sliced_threads=0 / nr=0 / decimate=1 / interlaced=0 / bluray_compat=0 / constrained_intra=0 / bframes=3 / b_pyramid=2 / b_adapt=2 / b_bias=0 / direct=3 / weightb=1 / open_gop=0 / weightp=2 / keyint=240 / keyint_min=24 / scenecut=40 / intra_refresh=0 / rc_lookahead=50 / rc=2pass / mbtree=1 / bitrate=7732 / ratetol=1.0 / qcomp=0.60 / qpmin=0 / qpmax=69 / qpstep=4 / cplxblur=20.0 / qblur=0.5 / ip_ratio=1.40 / aq=3:0.50
Default : Yes
Forced : No

Audio
ID : 2
Format : AC-3
Format/Info : Audio Coding 3
Commercial name : Dolby Digital
Codec ID : A_AC3
Duration : 1 h 17 min
Bit rate mode : Constant
Bit rate : 320 kb/s
Channel(s) : 2 channels
Channel layout : L R
Sampling rate : 48.0 kHz
Frame rate : 31.250 FPS (1536 SPF)
Bit depth : 16 bits
Compression mode : Lossy
Stream size : 178 MiB (4%)
Language : English
Service kind : Complete Main
Default : Yes
Forced : No

Text #1
ID : 3
Format : UTF-8
Codec ID : S_TEXT/UTF8
Codec ID/Info : UTF-8 Plain Text
Duration : 1 h 17 min
Bit rate : 62 b/s
Count of elements : 1165
Stream size : 35.3 KiB (0%)
Language : English
Default : No
Forced : No

Text #2
ID : 4
Format : UTF-8
Codec ID : S_TEXT/UTF8
Codec ID/Info : UTF-8 Plain Text
Duration : 1 h 17 min
Bit rate : 70 b/s
Count of elements : 1336
Stream size : 39.8 KiB (0%)
Title : SDH
Language : English
Default : No
Forced : No





A.Goofy.Movie.1995.720p.BluRay.X264-AMIABLE.torrent (44.53 KB, 下載次數: 28)

提示:如迅雷下載提示"任務出錯"、"因版權無法下載",請更換【迅雷5】,提取碼: ai7u
古哥影視論壇www.tdtiyl.tw 高清電影,藍光電影,最新電影,電影天堂,影視帝國,人人影視
點我免費領影視幣
2#
發表于 2019-6-18 22:38:03 | 只看該作者
95年的動畫片,謝謝樓主分享
古哥影視論壇www.tdtiyl.tw 高清電影,藍光電影,最新電影,電影天堂,影視帝國,人人影視
點我免費領影視幣
回復 支持 反對

使用道具 舉報

3#
發表于 2019-6-18 23:37:05 | 只看該作者
小時候的記憶,感謝樓主
古哥影視論壇www.tdtiyl.tw 高清電影,藍光電影,最新電影,電影天堂,影視帝國,人人影視
點我免費領影視幣
回復 支持 反對

使用道具 舉報

4#
發表于 2019-6-19 10:39:54 | 只看該作者
非常喜歡謝謝分享
古哥影視論壇www.tdtiyl.tw 高清電影,藍光電影,最新電影,電影天堂,影視帝國,人人影視
點我免費領影視幣
回復 支持 反對

使用道具 舉報

5#
發表于 2019-6-19 16:58:54 | 只看該作者

謝謝樓主無私奉獻了哈
古哥影視論壇www.tdtiyl.tw 高清電影,藍光電影,最新電影,電影天堂,影視帝國,人人影視
點我免費領影視幣
回復 支持 反對

使用道具 舉報

6#
發表于 2019-6-19 18:28:22 | 只看該作者
[終極傻瓜/一個愚蠢的點子]A.Goofy.Movie.1995.720p.BluRay.X264-AMIABLE 4.37GB
古哥影視論壇www.tdtiyl.tw 高清電影,藍光電影,最新電影,電影天堂,影視帝國,人人影視
點我免費領影視幣
回復 支持 反對

使用道具 舉報

7#
發表于 2019-6-19 18:57:05 | 只看該作者
感謝樓主分享!永遠支持古哥影視
古哥影視論壇www.tdtiyl.tw 高清電影,藍光電影,最新電影,電影天堂,影視帝國,人人影視
點我免費領影視幣
回復 支持 反對

使用道具 舉報

8#
發表于 2019-6-19 20:59:30 | 只看該作者
好片 謝謝分享
古哥影視論壇www.tdtiyl.tw 高清電影,藍光電影,最新電影,電影天堂,影視帝國,人人影視
點我免費領影視幣
回復 支持 反對

使用道具 舉報

9#
發表于 2019-6-19 22:35:20 | 只看該作者
回帖是美德,謝謝分享!!
古哥影視論壇www.tdtiyl.tw 高清電影,藍光電影,最新電影,電影天堂,影視帝國,人人影視
點我免費領影視幣
回復 支持 反對

使用道具 舉報

10#
發表于 2019-6-20 10:21:06 | 只看該作者
感謝樓主分享。。。
古哥影視論壇www.tdtiyl.tw 高清電影,藍光電影,最新電影,電影天堂,影視帝國,人人影視
點我免費領影視幣
回復 支持 反對

使用道具 舉報

11#
發表于 2019-6-20 11:14:23 | 只看該作者
先謝樓主分享,樓主辛苦
古哥影視論壇www.tdtiyl.tw 高清電影,藍光電影,最新電影,電影天堂,影視帝國,人人影視
點我免費領影視幣
回復 支持 反對

使用道具 舉報

12#
發表于 2019-6-20 20:59:47 | 只看該作者
感謝樓主分享
古哥影視論壇www.tdtiyl.tw 高清電影,藍光電影,最新電影,電影天堂,影視帝國,人人影視
點我免費領影視幣
回復 支持 反對

使用道具 舉報

13#
發表于 2019-6-22 12:05:35 | 只看該作者
95年的片子終極傻瓜 也是高清的呀
古哥影視論壇www.tdtiyl.tw 高清電影,藍光電影,最新電影,電影天堂,影視帝國,人人影視
點我免費領影視幣
回復 支持 反對

使用道具 舉報

14#
發表于 2019-6-27 23:22:18 | 只看該作者
一個愚蠢的點子,美國動畫片
古哥影視論壇www.tdtiyl.tw 高清電影,藍光電影,最新電影,電影天堂,影視帝國,人人影視
點我免費領影視幣
回復 支持 反對

使用道具 舉報

您需要登錄后才可以回帖 登錄 | 注冊(分享大片)

本版積分規則

影視帝國免責聲明
本站提供網上學習交流和自由討論使用,所有資源均來自互聯網公開渠道,發布和個人言論并不代表本站立場,本站不負任何責任.
如發現有侵權行為,請與我們聯系.我們將立刻從網站上刪除,并向所有持版權者致最深歉意.
影視帝國論壇已經安全運行

QQ|小黑屋|手機版|Archiver|古哥論壇 ( 蘇ICP備12074540號 )

GMT+8, 2019-7-8 03:59 , Processed in 0.233828 second(s), 21 queries , Gzip On.

Powered by Discuz! X3.2

© 2001-2013 Comsenz Inc.

快速回復 返回頂部 返回列表
6肖中特期期准最新