古哥論壇

 找回密碼
 注冊(分享大片)
查看: 1993|回復: 34
打印 上一主題 下一主題

[1080P] [哥斯拉:噬星者/GODZILLA 第三章]2018.JAPANESE.1080p.BluRay.x264.DTS-WiKi 7.91GB

[復制鏈接]
跳轉到指定樓層
1#
發表于 2019-6-18 22:18:44 | 只看該作者 回帖獎勵 |倒序瀏覽 |閱讀模式
4K天堂


◎譯  名 哥斯拉:噬星者 / GODZILLA 第三章 / Godzilla: Eater of Stars / Godzilla: The Planet Eater / 哥斯拉:喰星者 / 哥斯拉:行星吞噬者
◎片  名 GODZILLA 星を喰う者
◎年  代 2018
◎產  地 日本
◎類  別 動作 / 科幻 / 動畫
◎語  言 日語
◎上映日期 2018-11-03(東京電影節) / 2018-11-09(日本)
◎IMDb評分 4.9/10 from 2458 users
◎IMDb鏈接 http://www.imdb.com/title/tt8478602
◎豆瓣評分 5.8/10 from 3678 users
◎藍光高清   http://www.4ktt.com
◎片  長 90分鐘
◎導  演 靜野孔文 Kobun Shizuno / 瀨下寬之 Hiroyuki Seshita
◎編  劇 虛淵玄 Gen Urobuchi / 村井貞之 Sadayuki Murai
◎主  演 宮野真守 Mamoru Miyano
      櫻井孝宏 Takahiro Sakurai
      花澤香菜 Kana Hanazawa
      杉田智和 Tomokazu Sugita
      梶裕貴 Y?ki Kaji
      諏訪部順一 Junichi Suwabe
      三宅健太 Kenta Miyake
      堀內賢雄 Ken'y? Horiuchi
      中井和哉 Kazuya Nakai
      山路和弘 Kazuhiro Yamaji
      早見沙織 Saori Hayami
      上田麗奈 Reina Ueda
      小澤亞李 Ari Ozawa
      鈴村健一 Kenichi Suzumura


◎簡  介
  系列第三部 最終話 Netflix
大門開啟,黃金的刻印切裂星球。
21世紀初,被哥斯拉奪走了地球的人類,將一部分人類送往其他恒星系移居,但這一計劃以失敗告終。失意地回到地球的人類,面對的是兩萬年后巨變的地球。
一切動植物都擁有哥斯拉細胞,化作“怪獸行星”的地球。君臨于此的,是身高超過300m的史上最大哥斯拉“哥斯拉·地球”。
燃起討伐哥斯拉執念的主人公晴男,與人類的子孫種族弗圖亞相遇。晴男等人在弗圖亞雙子姐妹瑪伊娜和米亞娜的引導下,發現仍在持續增殖的對哥斯拉決戰兵器·機械哥斯拉的殘骸。他們使用構成殘骸的納米金屬,令武裝要塞都市“機械哥斯拉都市”啟動,向“哥斯拉·地球”發起挑戰。
在這一作戰的過程中,之前曾經一同共存的異星人種族之一比爾沙爾德與人類之間的裂痕逐漸表面化。與比爾沙爾德首領·加爾格的“若要打倒哥斯拉,就要成為超越‘人’的存在”這一信念相對,晴男無法放棄“不可為了打倒怪獸而使自己也變成怪獸,應該作為‘人’將其戰勝”這一信念。終于,晴男舍棄了打倒“哥斯拉·地球”的唯一機會,將加爾格殺死。另一方面,晴男的青梅竹馬優子也由于比爾沙爾德進行的人體強制納米金屬化,而陷入腦死狀態。
敗北感和虛無感在人類之間擴散。另一方的異星人,宗教種族埃克西弗的大司教·梅特菲斯,將晴男從戰斗中存活下來之事主張為“奇跡”,并借此增加信徒。這是為了達成埃克西弗隱藏起來的“終極目的”。米亞娜和瑪伊娜警戒著這樣的埃克西弗。此外,晴男也自問自己身為“人”應該去做什么。
不久,在沒人能打倒“哥斯拉·地球”的地球上,覆蓋著金色閃光的“基多拉”降臨,震天動地的超次元戰斗開始了。
“哥斯拉”是什么?“人”應該去做的事情是什么?晴男眼中的未來又是——。
最終章中,一切都將明了。

Video
ID : 1
Format : AVC
Format/Info : Advanced Video Codec
Format profile : [email protected]
Format settings : CABAC / 4 Ref Frames
Format settings, CABAC : Yes
Format settings, ReFrames : 4 frames
Codec ID : V_MPEG4/ISO/AVC
Duration : 1 h 30 min
Bit rate : 11.0 Mb/s
Width : 1 920 pixels
Height : 1 080 pixels
Display aspect ratio : 16:9
Frame rate mode : Constant
Frame rate : 23.976 (24000/1001) FPS
Color space : YUV
Chroma subsampling : 4:2:0
Bit depth : 8 bits
Scan type : Progressive
Bits/(Pixel*Frame) : 0.221
Stream size : 6.92 GiB (88%)
Writing library : x264 core 130 r2273 b3065e6
Encoding settings : cabac=1 / ref=4 / deblock=1:-1:-1 / analyse=0x3:0x113 / me=umh / subme=11 / psy=1 / psy_rd=1.00:0.00 / mixed_ref=1 / me_range=32 / chroma_me=1 / trellis=2 / 8x8dct=1 / cqm=0 / deadzone=21,11 / fast_pskip=0 / chroma_qp_offset=-4 / threads=12 / lookahead_threads=2 / sliced_threads=0 / nr=0 / decimate=0 / interlaced=0 / bluray_compat=0 / constrained_intra=0 / bframes=8 / b_pyramid=2 / b_adapt=2 / b_bias=0 / direct=3 / weightb=1 / open_gop=0 / weightp=2 / keyint=250 / keyint_min=23 / scenecut=40 / intra_refresh=0 / rc=2pass / mbtree=0 / bitrate=11000 / ratetol=1.0 / qcomp=0.60 / qpmin=0 / qpmax=69 / qpstep=4 / cplxblur=20.0 / qblur=0.5 / ip_ratio=1.40 / pb_ratio=1.30 / aq=1:0.95
Language : English
Default : Yes
Forced : No

Audio
ID : 2
Format : DTS
Format/Info : Digital Theater Systems
Codec ID : A_DTS
Duration : 1 h 30 min
Bit rate mode : Constant
Bit rate : 1 509 kb/s
Channel(s) : 6 channels
Channel layout : C L R Ls Rs LFE
Sampling rate : 48.0 kHz
Frame rate : 93.750 FPS (512 SPF)
Bit depth : 24 bits
Compression mode : Lossy
Stream size : 973 MiB (12%)
Title : 日語
Language : Japanese
Default : Yes
Forced : No

Text
ID : 3
Format : UTF-8
Codec ID : S_TEXT/UTF8
Codec ID/Info : UTF-8 Plain Text
Duration : 1 h 29 min
Bit rate : 58 b/s
Count of elements : 990
Stream size : 38.5 KiB (0%)
Language : English
Default : Yes
Forced : Yes





Godzilla.The.Planet.Eater.2018.JAPANESE.1080p.BluRay.x264.DTS-WiKi.torrent (40.12 KB, 下載次數: 408)

提示:如迅雷下載提示"任務出錯"、"因版權無法下載",請更換【迅雷5】,提取碼: ai7u
古哥影視論壇www.tdtiyl.tw 高清電影,藍光電影,最新電影,電影天堂,影視帝國,人人影視
點我免費領影視幣
2#
發表于 2019-6-18 22:58:31 | 只看該作者
回帖是美德,謝謝分享!!
古哥影視論壇www.tdtiyl.tw 高清電影,藍光電影,最新電影,電影天堂,影視帝國,人人影視
點我免費領影視幣
回復 支持 反對

使用道具 舉報

3#
發表于 2019-6-18 23:13:32 | 只看該作者
有沒有第一章和第二章的鏈接啊~?整個古哥好像都木有
古哥影視論壇www.tdtiyl.tw 高清電影,藍光電影,最新電影,電影天堂,影視帝國,人人影視
點我免費領影視幣
回復 支持 反對

使用道具 舉報

4#
發表于 2019-6-18 23:47:52 | 只看該作者
提前補一補哥斯拉的設定
古哥影視論壇www.tdtiyl.tw 高清電影,藍光電影,最新電影,電影天堂,影視帝國,人人影視
點我免費領影視幣
回復 支持 反對

使用道具 舉報

5#
發表于 2019-6-19 08:55:43 | 只看該作者
謝謝樓主分享·
古哥影視論壇www.tdtiyl.tw 高清電影,藍光電影,最新電影,電影天堂,影視帝國,人人影視
點我免費領影視幣
回復 支持 反對

使用道具 舉報

6#
發表于 2019-6-19 10:07:43 | 只看該作者
暑期檔開始了。。。。。
古哥影視論壇www.tdtiyl.tw 高清電影,藍光電影,最新電影,電影天堂,影視帝國,人人影視
點我免費領影視幣
回復 支持 反對

使用道具 舉報

7#
發表于 2019-6-19 10:40:45 | 只看該作者
非常喜歡謝謝分享
古哥影視論壇www.tdtiyl.tw 高清電影,藍光電影,最新電影,電影天堂,影視帝國,人人影視
點我免費領影視幣
回復 支持 反對

使用道具 舉報

8#
發表于 2019-6-19 11:42:35 | 只看該作者
日本這類的影片很多吧
古哥影視論壇www.tdtiyl.tw 高清電影,藍光電影,最新電影,電影天堂,影視帝國,人人影視
點我免費領影視幣
回復 支持 反對

使用道具 舉報

9#
發表于 2019-6-19 14:11:03 | 只看該作者
先謝樓主分享
古哥影視論壇www.tdtiyl.tw 高清電影,藍光電影,最新電影,電影天堂,影視帝國,人人影視
點我免費領影視幣
回復 支持 反對

使用道具 舉報

10#
發表于 2019-6-19 15:10:42 | 只看該作者
動畫片應該更加刺激!!!!!!
古哥影視論壇www.tdtiyl.tw 高清電影,藍光電影,最新電影,電影天堂,影視帝國,人人影視
點我免費領影視幣
回復 支持 反對

使用道具 舉報

11#
發表于 2019-6-19 18:56:25 | 只看該作者
感謝樓主分享!永遠支持古哥影視
古哥影視論壇www.tdtiyl.tw 高清電影,藍光電影,最新電影,電影天堂,影視帝國,人人影視
點我免費領影視幣
回復 支持 反對

使用道具 舉報

12#
發表于 2019-6-19 21:53:21 | 只看該作者

謝謝樓主分享
古哥影視論壇www.tdtiyl.tw 高清電影,藍光電影,最新電影,電影天堂,影視帝國,人人影視
點我免費領影視幣
回復 支持 反對

使用道具 舉報

13#
發表于 2019-6-19 22:04:53 | 只看該作者
有了。有了。。正啊。。。
古哥影視論壇www.tdtiyl.tw 高清電影,藍光電影,最新電影,電影天堂,影視帝國,人人影視
點我免費領影視幣
回復 支持 反對

使用道具 舉報

15#
發表于 2019-6-20 08:26:28 | 只看該作者
謝謝樓主分享·
古哥影視論壇www.tdtiyl.tw 高清電影,藍光電影,最新電影,電影天堂,影視帝國,人人影視
點我免費領影視幣
回復 支持 反對

使用道具 舉報

16#
發表于 2019-6-20 11:15:07 | 只看該作者
日本人巴哥斯拉無限的放大了,樓主辛苦
古哥影視論壇www.tdtiyl.tw 高清電影,藍光電影,最新電影,電影天堂,影視帝國,人人影視
點我免費領影視幣
回復 支持 反對

使用道具 舉報

17#
發表于 2019-6-20 16:14:58 來自手機 | 只看該作者
謝謝樓主分享
古哥影視論壇www.tdtiyl.tw 高清電影,藍光電影,最新電影,電影天堂,影視帝國,人人影視
點我免費領影視幣
回復 支持 反對

使用道具 舉報

18#
發表于 2019-6-20 19:02:59 | 只看該作者
還以為是哥斯拉2 原來是動畫片,但還不錯。
古哥影視論壇www.tdtiyl.tw 高清電影,藍光電影,最新電影,電影天堂,影視帝國,人人影視
點我免費領影視幣
回復 支持 反對

使用道具 舉報

19#
發表于 2019-6-20 22:36:47 | 只看該作者
看看“”哥斯拉”是什么?
古哥影視論壇www.tdtiyl.tw 高清電影,藍光電影,最新電影,電影天堂,影視帝國,人人影視
點我免費領影視幣
回復 支持 反對

使用道具 舉報

20#
發表于 2019-6-21 06:40:52 | 只看該作者
感謝樓主分享
古哥影視論壇www.tdtiyl.tw 高清電影,藍光電影,最新電影,電影天堂,影視帝國,人人影視
點我免費領影視幣
回復 支持 反對

使用道具 舉報

您需要登錄后才可以回帖 登錄 | 注冊(分享大片)

本版積分規則

影視帝國免責聲明
本站提供網上學習交流和自由討論使用,所有資源均來自互聯網公開渠道,發布和個人言論并不代表本站立場,本站不負任何責任.
如發現有侵權行為,請與我們聯系.我們將立刻從網站上刪除,并向所有持版權者致最深歉意.
影視帝國論壇已經安全運行

QQ|小黑屋|手機版|Archiver|古哥論壇 ( 蘇ICP備12074540號 )

GMT+8, 2019-7-15 08:47 , Processed in 0.210910 second(s), 21 queries , Gzip On.

Powered by Discuz! X3.2

© 2001-2013 Comsenz Inc.

快速回復 返回頂部 返回列表
6肖中特期期准最新