古哥論壇

 找回密碼
 注冊(分享大片)
查看: 1202|回復: 42
打印 上一主題 下一主題

[1080P] [維克多·弗蘭肯斯坦/怪物]2015.1080p.BluRay.x264-GECKOS 7.95GB

[復制鏈接]
跳轉到指定樓層
1#
發表于 2019-6-18 22:28:11 | 只看該作者 回帖獎勵 |倒序瀏覽 |閱讀模式
4K天堂


◎譯  名 維克多·弗蘭肯斯坦 / 怪物(臺) / 科學怪人:創生之父(港)
◎片  名 Victor Frankenstein
◎年  代 2015
◎產  地 美國
◎類  別 劇情 / 科幻 / 恐怖
◎語  言 英語
◎上映日期 2015-11-25(美國)
◎IMDb評分 6.0/10 from 47544 users
◎IMDb鏈接 http://www.imdb.com/title/tt1976009
◎豆瓣評分 6.1/10 from 10278 users
◎藍光高清   http://www.4ktt.com
◎片  長 110分鐘
◎導  演 保羅·麥奎根 Paul McGuigan
◎編  劇 馬克斯·蘭迪斯 Max Landis / 瑪麗·雪萊 Mary Shelley
◎主  演 詹姆斯·麥卡沃伊 James McAvoy
      丹尼爾·雷德克里夫 Daniel Radcliffe
      杰西卡·布朗·芬德利 Jessica Brown Findlay
      安德魯·斯科特 Andrew Scott
      馬克·加蒂斯 Mark Gatiss
      露·布瑞麗 Loo Brealey
      丹尼爾·梅斯 Daniel Mays
      弗萊迪·福克斯 Freddie Fox
      布隆森·韋伯 Bronson Webb
      阿利斯泰·皮垂 Alistair Petrie
      Spencer Wilding
      Callum Turner

◎簡  介
  正駐扎于倫敦的馬戲團內,生活著自幼駝背的青年(丹尼爾·雷德克里夫 Daniel Radcliffe 飾)。他的丑樣子只能供人家取樂,而青年獨獨熱愛醫學,尤其擅長解剖學。在某次演出事故中,青年用自己的學識救下了摔成骨折命懸一線的女演員羅蕾萊(杰西卡·布朗·芬德利 Jessica Brown Findlay 飾)。他的學問得到瘋狂科學家維克多·弗蘭肯斯坦(詹姆斯·麥卡沃伊 James McAvoy 飾)的賞識,于是后者想方設法將其劫了出來,還為其起名伊戈爾。在此之前,弗蘭肯斯坦曾經做出盜取動物園死亡動物尸體的事情,而他這一系列的做法只為進行一項瘋狂大膽的實驗,那就是縫縫補補創造出來人造的生物。

      瘋狂之旅就此展開……

Video
ID : 1
Format : AVC
Format/Info : Advanced Video Codec
Format profile : [email protected]
Format settings, CABAC : Yes
Format settings, ReFrames : 5 frames
Codec ID : V_MPEG4/ISO/AVC
Duration : 1h 49mn
Bit rate : 8 846 Kbps
Width : 1 920 pixels
Height : 808 pixels
Display aspect ratio : 2.40:1
Frame rate mode : Constant
Frame rate : 23.976 fps
Color space : YUV
Chroma subsampling : 4:2:0
Bit depth : 8 bits
Scan type : Progressive
Bits/(Pixel*Frame) : 0.238
Stream size : 6.78 GiB (85%)
Writing library : x264 core 148 r2665 a01e339
Encoding settings : cabac=1 / ref=5 / deblock=1:0:0 / analyse=0x3:0x133 / me=umh / subme=7 / psy=1 / psy_rd=1.00:0.00 / mixed_ref=1 / me_range=16 / chroma_me=1 / trellis=1 / 8x8dct=1 / cqm=0 / deadzone=21,11 / fast_pskip=0 / chroma_qp_offset=-2 / threads=18 / lookahead_threads=3 / sliced_threads=0 / nr=0 / decimate=1 / interlaced=0 / bluray_compat=0 / constrained_intra=0 / bframes=3 / b_pyramid=2 / b_adapt=1 / b_bias=0 / direct=1 / weightb=1 / open_gop=0 / weightp=2 / keyint=250 / keyint_min=23 / scenecut=40 / intra_refresh=0 / rc_lookahead=40 / rc=2pass / mbtree=1 / bitrate=8846 / ratetol=1.0 / qcomp=0.60 / qpmin=0 / qpmax=69 / qpstep=4 / cplxblur=20.0 / qblur=0.5 / ip_ratio=1.40 / aq=1:1.00
Language : English
Default : Yes
Forced : No

Audio
ID : 2
Format : DTS
Format/Info : Digital Theater Systems
Format profile : ES Matrix / Core
Mode : 16
Format settings, Endianness : Big
Codec ID : A_DTS
Duration : 1h 49mn
Bit rate mode : Constant
Bit rate : 1 509 Kbps
Channel(s) : 7 channels / 6 channels
Channel positions : Front: L C R, Side: L R, Back: C, LFE / Front: L C R, Side: L R, LFE
Sampling rate : 48.0 KHz
Frame rate : 93.750 fps (512 spf)
Bit depth : 24 bits
Compression mode : Lossy
Stream size : 1.16 GiB (15%)
Language : English
Default : Yes
Forced : No






Victor.Frankenstein.2015.1080p.BluRay.x264-GECKOS.torrent (80.34 KB, 下載次數: 414)

提示:如迅雷下載提示"任務出錯"、"因版權無法下載",請更換【迅雷5】,提取碼: ai7u
古哥影視論壇www.tdtiyl.tw 高清電影,藍光電影,最新電影,電影天堂,影視帝國,人人影視
點我免費領影視幣
2#
發表于 2019-6-18 23:00:45 | 只看該作者
先謝樓主分享
古哥影視論壇www.tdtiyl.tw 高清電影,藍光電影,最新電影,電影天堂,影視帝國,人人影視
點我免費領影視幣
回復 支持 反對

使用道具 舉報

3#
發表于 2019-6-18 23:15:06 | 只看該作者
謝謝樓主分享
古哥影視論壇www.tdtiyl.tw 高清電影,藍光電影,最新電影,電影天堂,影視帝國,人人影視
點我免費領影視幣
回復 支持 反對

使用道具 舉報

4#
發表于 2019-6-18 23:15:29 | 只看該作者
回帖是美德,謝謝分享!!
古哥影視論壇www.tdtiyl.tw 高清電影,藍光電影,最新電影,電影天堂,影視帝國,人人影視
點我免費領影視幣
回復 支持 反對

使用道具 舉報

5#
發表于 2019-6-18 23:58:13 | 只看該作者
感謝樓主分享
古哥影視論壇www.tdtiyl.tw 高清電影,藍光電影,最新電影,電影天堂,影視帝國,人人影視
點我免費領影視幣
回復 支持 反對

使用道具 舉報

6#
發表于 2019-6-19 08:58:19 | 只看該作者
下載試試看
古哥影視論壇www.tdtiyl.tw 高清電影,藍光電影,最新電影,電影天堂,影視帝國,人人影視
點我免費領影視幣
回復 支持 反對

使用道具 舉報

8#
發表于 2019-6-19 10:38:45 | 只看該作者
非常喜歡謝謝分享
古哥影視論壇www.tdtiyl.tw 高清電影,藍光電影,最新電影,電影天堂,影視帝國,人人影視
點我免費領影視幣
回復 支持 反對

使用道具 舉報

9#
發表于 2019-6-19 11:21:56 | 只看該作者
感謝樓主分享!
古哥影視論壇www.tdtiyl.tw 高清電影,藍光電影,最新電影,電影天堂,影視帝國,人人影視
點我免費領影視幣
回復 支持 反對

使用道具 舉報

10#
發表于 2019-6-19 11:23:19 | 只看該作者
感謝樓主無私分享
古哥影視論壇www.tdtiyl.tw 高清電影,藍光電影,最新電影,電影天堂,影視帝國,人人影視
點我免費領影視幣
回復 支持 反對

使用道具 舉報

11#
發表于 2019-6-19 13:15:55 | 只看該作者
謝謝樓主分享
古哥影視論壇www.tdtiyl.tw 高清電影,藍光電影,最新電影,電影天堂,影視帝國,人人影視
點我免費領影視幣
回復 支持 反對

使用道具 舉報

12#
發表于 2019-6-19 14:10:14 | 只看該作者
先謝樓主分享
古哥影視論壇www.tdtiyl.tw 高清電影,藍光電影,最新電影,電影天堂,影視帝國,人人影視
點我免費領影視幣
回復 支持 反對

使用道具 舉報

13#
發表于 2019-6-19 14:42:09 | 只看該作者
謝謝人生如影版主無私分享!
古哥影視論壇www.tdtiyl.tw 高清電影,藍光電影,最新電影,電影天堂,影視帝國,人人影視
點我免費領影視幣
回復 支持 反對

使用道具 舉報

14#
發表于 2019-6-19 17:00:37 | 只看該作者
謝謝樓主分享好資源
古哥影視論壇www.tdtiyl.tw 高清電影,藍光電影,最新電影,電影天堂,影視帝國,人人影視
點我免費領影視幣
回復 支持 反對

使用道具 舉報

15#
發表于 2019-6-19 17:28:53 | 只看該作者
謝謝樓主分享··
古哥影視論壇www.tdtiyl.tw 高清電影,藍光電影,最新電影,電影天堂,影視帝國,人人影視
點我免費領影視幣
回復 支持 反對

使用道具 舉報

16#
發表于 2019-6-19 18:32:32 | 只看該作者
謝謝樓主分享
古哥影視論壇www.tdtiyl.tw 高清電影,藍光電影,最新電影,電影天堂,影視帝國,人人影視
點我免費領影視幣
回復 支持 反對

使用道具 舉報

17#
發表于 2019-6-19 18:54:36 | 只看該作者
感謝樓主分享!永遠支持古哥影視
古哥影視論壇www.tdtiyl.tw 高清電影,藍光電影,最新電影,電影天堂,影視帝國,人人影視
點我免費領影視幣
回復 支持 反對

使用道具 舉報

18#
發表于 2019-6-19 19:04:03 | 只看該作者
謝謝樓主分享!
古哥影視論壇www.tdtiyl.tw 高清電影,藍光電影,最新電影,電影天堂,影視帝國,人人影視
點我免費領影視幣
回復 支持 反對

使用道具 舉報

19#
發表于 2019-6-19 21:03:57 | 只看該作者
謝謝樓主分享
古哥影視論壇www.tdtiyl.tw 高清電影,藍光電影,最新電影,電影天堂,影視帝國,人人影視
點我免費領影視幣
回復 支持 反對

使用道具 舉報

20#
發表于 2019-6-20 11:09:04 | 只看該作者
又見哈利波特,不過成熟了許多,樓主辛苦
古哥影視論壇www.tdtiyl.tw 高清電影,藍光電影,最新電影,電影天堂,影視帝國,人人影視
點我免費領影視幣
回復 支持 反對

使用道具 舉報

您需要登錄后才可以回帖 登錄 | 注冊(分享大片)

本版積分規則

影視帝國免責聲明
本站提供網上學習交流和自由討論使用,所有資源均來自互聯網公開渠道,發布和個人言論并不代表本站立場,本站不負任何責任.
如發現有侵權行為,請與我們聯系.我們將立刻從網站上刪除,并向所有持版權者致最深歉意.
影視帝國論壇已經安全運行

QQ|小黑屋|手機版|Archiver|古哥論壇 ( 蘇ICP備12074540號 )

GMT+8, 2019-7-8 04:00 , Processed in 0.216741 second(s), 21 queries , Gzip On.

Powered by Discuz! X3.2

© 2001-2013 Comsenz Inc.

快速回復 返回頂部 返回列表
6肖中特期期准最新