古哥論壇

 找回密碼
 注冊(分享大片)
查看: 947|回復: 65
打印 上一主題 下一主題

[速度與激情:特別行動]2019.1080p.BluRay.REMUX.AVC.DTS-HD.MA.TrueHD.7.1.Atmos-FGT

[復制鏈接]
跳轉到指定樓層
1#
發表于 2019-11-3 23:52:42 | 只看該作者 回帖獎勵 |倒序瀏覽 |閱讀模式
4K天堂


◎譯  名 速度與激情:特別行動 / Hobbs and Shaw / The Fast and the Furious Spinoff / 狂野時速:雙雄聯盟(港) / 玩命關頭:特別行動(臺) / 速度與基情(豆友譯名) / 速度與激情外傳 / 速度與激情衍生片 / 霍布斯與肖
◎片  名 Fast & Furious Presents: Hobbs & Shaw
◎年  代 2019
◎產  地 美國
◎類  別 動作 / 犯罪
◎語  言 英語
◎上映日期 2019-08-02(美國) / 2019-08-23(中國大陸)
◎IMDb評分 6.8/10 from 64451 users
◎IMDb鏈接 http://www.imdb.com/title/tt6806448
◎豆瓣評分 6.4/10 from 122826 users
◎藍光高清   http://www.4ktt.com
◎片  長 137分鐘
◎導  演 大衛·雷奇 David Leitch
◎編  劇 克里斯·摩根 Chris Morgan / 蓋瑞·斯科特·湯普森 Gary Scott Thompson / 德魯·皮爾斯 Drew Pearce
◎主  演 道恩·強森 Dwayne Johnson
      杰森·斯坦森 Jason Statham
      伊德里斯·艾爾巴 Idris Elba
      凡妮莎·柯比 Vanessa Kirby
      艾莎·岡薩雷斯 Eiza González
      海倫·米倫 Helen Mirren
      瑞恩·雷諾茲 Ryan Reynolds
      凱文·哈特 Kevin Hart
      埃迪·馬森 Eddie Marsan
      羅曼·雷恩斯 Roman Reigns
      斯蒂芬妮·沃格特 Stephanie Vogt
      維克托里婭·菲斯 Viktorija Faith
      康蘭·卡薩爾 Conlan Casal
      海倫娜·福爾摩斯 Helena Holmes
      伯納多·桑托斯 Bernardo Santos
      露絲·霍洛克斯 Ruth Horrocks
      大衛·穆梅尼 David Mumeni
      馬諾伊·阿南德 Manoj Anand
      阿瑪爾·阿達蒂亞 Amar Adatia
      朱利安·費羅 Julian Ferro
      丹尼爾·厄根 Daniel Eghan
      拉普洛斯·卡倫福佐斯 Lampros Kalfuntzos
      阿克塞爾·努 Axel Nu
      史蒂夫·萊溫頓 Steve Lewington
      安東尼奧·曼奇諾 Antonio Mancino
      斯特拉·斯托克爾 Stella Stocker
      克利夫·柯蒂斯 Cliff Curtis


◎簡  介
  一個是美國外交安全局的忠誠特工、身材魁梧的執法者霍布斯(強森飾),一個是前英國軍事特工精英、無法無天的惡棍肖(斯坦森飾)。在2015年的《速度與激情7》中首次對峙之后,兩人不論言語還是肢體都沖突不斷,一直試圖打倒對方。
  然而,通過高科技進行了基因增強的無政府主義者布里克斯頓(伊德瑞斯·艾爾巴飾)控制了一種可能永遠改變人類命運的不為人知的生化武器,并且還打敗了一位大膽優秀又特立獨行的軍情六處特工(曾出演《王冠》的凡妮莎·科比飾)——她恰好是肖的妹妹,為了扳倒這個世界上唯一可能比他們更厲害的敵人,這兩個不共戴天的宿敵不得不聯手。
  《速度與激情:特別行動》一片在《速度與激情》系列的宇宙中推開了一扇全新的大門。從洛杉磯到倫敦,從切爾諾貝利的有毒廢墟到美麗的南太平洋島國薩摩亞,本次特別行動席卷全球。
  該片由大衛·雷奇執導(《死侍2》導演),由《速度與激情》系列故事的締造者克里斯·摩根編劇,摩根、強森、斯坦森和海拉姆·加西亞共同擔綱制片。丹尼·加西亞、凱利·麥考密克、 、史蒂文·查斯曼、伊森·史密斯和安斯利·戴維斯擔任監制。

Video
ID : 1
Format : AVC
Format/Info : Advanced Video Codec
Format profile : [email protected]
Format settings : CABAC / 4 Ref Frames
Format settings, CABAC : Yes
Format settings, Reference frames : 4 frames
Codec ID : V_MPEG4/ISO/AVC
Duration : 2 h 16 min
Bit rate mode : Variable
Bit rate : 28.7 Mb/s
Maximum bit rate : 37.3 Mb/s
Width : 1 920 pixels
Height : 1 080 pixels
Display aspect ratio : 16:9
Frame rate mode : Constant
Frame rate : 23.976 (24000/1001) FPS
Color space : YUV
Chroma subsampling : 4:2:0
Bit depth : 8 bits
Scan type : Progressive
Bits/(Pixel*Frame) : 0.576
Stream size : 27.4 GiB (73%)
Title : Fast.and.Furious.Presents.Hobbs.and.Shaw.2019.1080p.BluRay.REMUX.AVC.DTS-HD.MA.TrueHD.7.1.Atmos-FGT
Language : English
Default : No
Forced : No

Audio #1
ID : 2
Format : MLP FBA 16-ch
Format/Info : Meridian Lossless Packing FBA with 16-channel presentation
Commercial name : Dolby TrueHD with Dolby Atmos
Codec ID : A_TRUEHD
Duration : 2 h 16 min
Bit rate mode : Variable
Bit rate : 3 141 kb/s
Maximum bit rate : 5 394 kb/s
Channel(s) : 8 channels
Channel layout : L R C LFE Ls Rs Lb Rb
Sampling rate : 48.0 kHz
Frame rate : 1 200.000 FPS (40 SPF)
Compression mode : Lossless
Stream size : 3.00 GiB (8%)
Title : Fast.and.Furious.Presents.Hobbs.and.Shaw.2019.1080p.BluRay.REMUX.AVC.DTS-HD.MA.TrueHD.7.1.Atmos-FGT
Language : English
Default : Yes
Forced : No
Number of dynamic objects : 11
Bed channel count : 1 channel
Bed channel configuration : LFE

Audio #2
ID : 3
Format : DTS XLL
Format/Info : Digital Theater Systems
Commercial name : DTS-HD Master Audio
Codec ID : A_DTS
Duration : 2 h 16 min
Bit rate mode : Variable
Bit rate : 3 995 kb/s
Channel(s) : 8 channels
Channel layout : C L R LFE Lb Rb Lss Rss
Sampling rate : 48.0 kHz
Frame rate : 93.750 FPS (512 SPF)
Bit depth : 24 bits
Compression mode : Lossless
Stream size : 3.81 GiB (10%)
Title : Fast.and.Furious.Presents.Hobbs.and.Shaw.2019.1080p.BluRay.REMUX.AVC.DTS-HD.MA.TrueHD.7.1.Atmos-FGT
Language : English
Default : No
Forced : No

Audio #3
ID : 4
Format : AC-3
Format/Info : Audio Coding 3
Commercial name : Dolby Digital
Codec ID : A_AC3
Duration : 2 h 16 min
Bit rate mode : Constant
Bit rate : 448 kb/s
Channel(s) : 6 channels
Channel layout : L R C LFE Ls Rs
Sampling rate : 48.0 kHz
Frame rate : 31.250 FPS (1536 SPF)
Bit depth : 16 bits
Compression mode : Lossy
Stream size : 438 MiB (1%)
Title : Fast.and.Furious.Presents.Hobbs.and.Shaw.2019.1080p.BluRay.REMUX.AVC.DTS-HD.MA.TrueHD.7.1.Atmos-FGT
Language : English
Service kind : Complete Main
Default : No
Forced : No

Audio #4
ID : 5
Format : E-AC-3
Format/Info : Enhanced AC-3
Commercial name : Dolby Digital Plus
Format profile : Blu-ray Disc
Codec ID : A_EAC3
Duration : 2 h 16 min
Bit rate mode : Constant
Bit rate : 768 kb/s
Channel(s) : 8 channels
Channel layout : L R C LFE Ls Rs Lb Rb
Sampling rate : 48.0 kHz
Frame rate : 31.250 FPS (1536 SPF)
Compression mode : Lossy
Stream size : 751 MiB (2%)
Title : Fast.and.Furious.Presents.Hobbs.and.Shaw.2019.1080p.BluRay.REMUX.AVC.DTS-HD.MA.TrueHD.7.1.Atmos-FGT
Language : Spanish
Service kind : Complete Main
Default : No
Forced : No

Audio #5
ID : 6
Format : AC-3
Format/Info : Audio Coding 3
Commercial name : Dolby Digital
Codec ID : A_AC3
Duration : 2 h 16 min
Bit rate mode : Constant
Bit rate : 448 kb/s
Channel(s) : 6 channels
Channel layout : L R C LFE Ls Rs
Sampling rate : 48.0 kHz
Frame rate : 31.250 FPS (1536 SPF)
Bit depth : 16 bits
Compression mode : Lossy
Stream size : 438 MiB (1%)
Title : Fast.and.Furious.Presents.Hobbs.and.Shaw.2019.1080p.BluRay.REMUX.AVC.DTS-HD.MA.TrueHD.7.1.Atmos-FGT
Language : Spanish
Service kind : Complete Main
Default : No
Forced : No

Audio #6
ID : 7
Format : E-AC-3
Format/Info : Enhanced AC-3
Commercial name : Dolby Digital Plus
Format profile : Blu-ray Disc
Codec ID : A_EAC3
Duration : 2 h 16 min
Bit rate mode : Constant
Bit rate : 768 kb/s
Channel(s) : 8 channels
Channel layout : L R C LFE Ls Rs Lb Rb
Sampling rate : 48.0 kHz
Frame rate : 31.250 FPS (1536 SPF)
Compression mode : Lossy
Stream size : 751 MiB (2%)
Title : Fast.and.Furious.Presents.Hobbs.and.Shaw.2019.1080p.BluRay.REMUX.AVC.DTS-HD.MA.TrueHD.7.1.Atmos-FGT
Language : French
Service kind : Complete Main
Default : No
Forced : No

Audio #7
ID : 8
Format : AC-3
Format/Info : Audio Coding 3
Commercial name : Dolby Digital
Codec ID : A_AC3
Duration : 2 h 16 min
Bit rate mode : Constant
Bit rate : 448 kb/s
Channel(s) : 6 channels
Channel layout : L R C LFE Ls Rs
Sampling rate : 48.0 kHz
Frame rate : 31.250 FPS (1536 SPF)
Bit depth : 16 bits
Compression mode : Lossy
Stream size : 438 MiB (1%)
Title : Fast.and.Furious.Presents.Hobbs.and.Shaw.2019.1080p.BluRay.REMUX.AVC.DTS-HD.MA.TrueHD.7.1.Atmos-FGT
Language : French
Service kind : Complete Main
Default : No
Forced : No

Audio #8
ID : 9
Format : AC-3
Format/Info : Audio Coding 3
Commercial name : Dolby Digital
Codec ID : A_AC3
Duration : 2 h 16 min
Bit rate mode : Constant
Bit rate : 192 kb/s
Channel(s) : 2 channels
Channel layout : L R
Sampling rate : 48.0 kHz
Frame rate : 31.250 FPS (1536 SPF)
Bit depth : 16 bits
Compression mode : Lossy
Stream size : 188 MiB (0%)
Title : Fast.and.Furious.Presents.Hobbs.and.Shaw.2019.1080p.BluRay.REMUX.AVC.DTS-HD.MA.TrueHD.7.1.Atmos-FGT
Language : English
Service kind : Complete Main
Default : No
Forced : No

Audio #9
ID : 10
Format : AC-3
Format/Info : Audio Coding 3
Commercial name : Dolby Digital
Codec ID : A_AC3
Duration : 2 h 16 min
Bit rate mode : Constant
Bit rate : 192 kb/s
Channel(s) : 2 channels
Channel layout : L R
Sampling rate : 48.0 kHz
Frame rate : 31.250 FPS (1536 SPF)
Bit depth : 16 bits
Compression mode : Lossy
Stream size : 188 MiB (0%)
Title : Fast.and.Furious.Presents.Hobbs.and.Shaw.2019.1080p.BluRay.REMUX.AVC.DTS-HD.MA.TrueHD.7.1.Atmos-FGT
Language : English
Service kind : Complete Main
Default : No
Forced : No

Text #1
ID : 11
Format : UTF-8
Codec ID : S_TEXT/UTF8
Codec ID/Info : UTF-8 Plain Text
Duration : 2 h 16 min
Bit rate : 71 b/s
Count of elements : 1916
Stream size : 71.7 KiB (0%)
Title : English-SRT
Language : English
Default : Yes
Forced : No

Text #2
ID : 12
Format : PGS
Muxing mode : zlib
Codec ID : S_HDMV/PGS
Codec ID/Info : Picture based subtitle format used on BDs/HD-DVDs
Duration : 2 h 16 min
Bit rate : 53.8 kb/s
Count of elements : 4408
Stream size : 52.6 MiB (0%)
Title : English-PGS
Language : English
Default : No
Forced : No

Text #3
ID : 13
Format : PGS
Muxing mode : zlib
Codec ID : S_HDMV/PGS
Codec ID/Info : Picture based subtitle format used on BDs/HD-DVDs
Duration : 2 h 16 min
Bit rate : 41.7 kb/s
Count of elements : 3334
Stream size : 40.6 MiB (0%)
Title : Spanish-PGS
Language : Spanish
Default : No
Forced : No

Text #4
ID : 14
Format : PGS
Muxing mode : zlib
Codec ID : S_HDMV/PGS
Codec ID/Info : Picture based subtitle format used on BDs/HD-DVDs
Duration : 2 h 16 min
Bit rate : 35.9 kb/s
Count of elements : 3309
Stream size : 34.9 MiB (0%)
Title : French-PGS
Language : French
Default : No
Forced : No

Text #5
ID : 15
Format : PGS
Muxing mode : zlib
Codec ID : S_HDMV/PGS
Codec ID/Info : Picture based subtitle format used on BDs/HD-DVDs
Duration : 2 h 14 min
Bit rate : 556 b/s
Count of elements : 56
Stream size : 549 KiB (0%)
Title : Spanish-FORCED-PGS
Language : Spanish
Default : No
Forced : No

Text #6
ID : 16
Format : PGS
Muxing mode : zlib
Codec ID : S_HDMV/PGS
Codec ID/Info : Picture based subtitle format used on BDs/HD-DVDs
Duration : 2 h 14 min
Bit rate : 957 b/s
Count of elements : 98
Stream size : 946 KiB (0%)
Title : French-FORCED-PGS
Language : French
Default : No
Forced : No

Menu
00:00:00.000 : en:Chapter 01
00:04:58.047 : en:Chapter 02
00:13:43.489 : en:Chapter 03
00:19:21.451 : en:Chapter 04
00:26:45.979 : en:Chapter 05
00:35:41.514 : en:Chapter 06
00:40:13.244 : en:Chapter 07
00:46:22.029 : en:Chapter 08
00:51:34.216 : en:Chapter 09
00:57:51.801 : en:Chapter 10
01:01:53.251 : en:Chapter 11
01:08:45.162 : en:Chapter 12
01:14:22.833 : en:Chapter 13
01:19:48.074 : en:Chapter 14
01:24:59.260 : en:Chapter 15
01:32:58.197 : en:Chapter 16
01:38:48.839 : en:Chapter 17
01:46:32.969 : en:Chapter 18
01:53:29.594 : en:Chapter 19
02:01:14.809 : en:Chapter 20





游客,如果您要查看本帖隱藏內容請回復,如果您想無廣告、免回復、下載附件免影視幣請開通VIP:VIP傳送門

提示:如迅雷下載提示"任務出錯"、"因版權無法下載",請更換【迅雷5】,提取碼: ai7u
古哥影視論壇www.tdtiyl.tw 高清電影,藍光電影,最新電影,電影天堂,影視帝國,人人影視
提示:如迅雷下載提示"任務出錯"、"因版權無法下載",請更換【迅雷5】,提取碼: ai7u
2#
發表于 2019-11-4 00:12:52 | 只看該作者
感謝樓主的分享啊!
古哥影視論壇www.tdtiyl.tw 高清電影,藍光電影,最新電影,電影天堂,影視帝國,人人影視
回復 支持 反對

使用道具 舉報

3#
發表于 2019-11-4 01:32:12 | 只看該作者

樓主太厲害了!樓主,I*老*虎*U!古哥影視絕對是電影愛好的天堂!
古哥影視論壇www.tdtiyl.tw 高清電影,藍光電影,最新電影,電影天堂,影視帝國,人人影視
回復 支持 反對

使用道具 舉報

4#
發表于 2019-11-4 02:20:53 | 只看該作者

這東西我收了!謝謝樓主!古哥影視真好!一定要堅持下去,支持不住時請讓大家捐助
古哥影視論壇www.tdtiyl.tw 高清電影,藍光電影,最新電影,電影天堂,影視帝國,人人影視
回復 支持 反對

使用道具 舉報

5#
發表于 2019-11-4 06:30:06 | 只看該作者
感謝樓主的分享啊!
古哥影視論壇www.tdtiyl.tw 高清電影,藍光電影,最新電影,電影天堂,影視帝國,人人影視
回復 支持 反對

使用道具 舉報

6#
發表于 2019-11-4 07:30:23 | 只看該作者
感謝樓主的分享
古哥影視論壇www.tdtiyl.tw 高清電影,藍光電影,最新電影,電影天堂,影視帝國,人人影視
回復 支持 反對

使用道具 舉報

7#
發表于 2019-11-4 07:52:08 | 只看該作者
看看夠不夠大!
古哥影視論壇www.tdtiyl.tw 高清電影,藍光電影,最新電影,電影天堂,影視帝國,人人影視
回復 支持 反對

使用道具 舉報

8#
發表于 2019-11-4 08:02:40 | 只看該作者
感謝樓主分享好片
古哥影視論壇www.tdtiyl.tw 高清電影,藍光電影,最新電影,電影天堂,影視帝國,人人影視
回復 支持 反對

使用道具 舉報

9#
發表于 2019-11-4 08:30:07 | 只看該作者
感謝樓主分享,謝謝
古哥影視論壇www.tdtiyl.tw 高清電影,藍光電影,最新電影,電影天堂,影視帝國,人人影視
回復 支持 反對

使用道具 舉報

10#
發表于 2019-11-4 09:12:46 | 只看該作者
擼主辛苦了
古哥影視論壇www.tdtiyl.tw 高清電影,藍光電影,最新電影,電影天堂,影視帝國,人人影視
回復 支持 反對

使用道具 舉報

11#
發表于 2019-11-4 09:41:51 | 只看該作者
我在電影院看過了,你能相信整個電影院,巨幕廳,只有兩個完全不認識的人在看么?
古哥影視論壇www.tdtiyl.tw 高清電影,藍光電影,最新電影,電影天堂,影視帝國,人人影視
回復 支持 反對

使用道具 舉報

12#
發表于 2019-11-4 10:35:39 | 只看該作者
下來看看,謝謝分享……
古哥影視論壇www.tdtiyl.tw 高清電影,藍光電影,最新電影,電影天堂,影視帝國,人人影視
回復 支持 反對

使用道具 舉報

13#
發表于 2019-11-4 11:07:20 | 只看該作者
感謝LZ分享
古哥影視論壇www.tdtiyl.tw 高清電影,藍光電影,最新電影,電影天堂,影視帝國,人人影視
回復 支持 反對

使用道具 舉報

14#
發表于 2019-11-4 11:28:27 | 只看該作者
有大硬盤就下藍光的。
古哥影視論壇www.tdtiyl.tw 高清電影,藍光電影,最新電影,電影天堂,影視帝國,人人影視
回復 支持 反對

使用道具 舉報

15#
發表于 2019-11-4 11:29:16 | 只看該作者
charlesyushan 發表于 2019-11-4 09:41
我在電影院看過了,你能相信整個電影院,巨幕廳,只有兩個完全不認識的人在看么?

啊,什么原因?片子這么不受捧?
古哥影視論壇www.tdtiyl.tw 高清電影,藍光電影,最新電影,電影天堂,影視帝國,人人影視
回復 支持 反對

使用道具 舉報

16#
發表于 2019-11-4 11:40:52 | 只看該作者
心心念念總算等到了
古哥影視論壇www.tdtiyl.tw 高清電影,藍光電影,最新電影,電影天堂,影視帝國,人人影視
回復 支持 反對

使用道具 舉報

17#
發表于 2019-11-4 13:46:26 | 只看該作者

這東西我收了!謝謝樓主!古哥影視真好!一定要堅持下去,支持不住時請讓大家捐助
古哥影視論壇www.tdtiyl.tw 高清電影,藍光電影,最新電影,電影天堂,影視帝國,人人影視
回復 支持 反對

使用道具 舉報

18#
發表于 2019-11-4 13:51:01 | 只看該作者
這電影有多大怎么看不見!
古哥影視論壇www.tdtiyl.tw 高清電影,藍光電影,最新電影,電影天堂,影視帝國,人人影視
回復 支持 反對

使用道具 舉報

20#
發表于 2019-11-4 15:21:52 | 只看該作者
不知道好不好看呀!
古哥影視論壇www.tdtiyl.tw 高清電影,藍光電影,最新電影,電影天堂,影視帝國,人人影視
回復 支持 反對

使用道具 舉報

懶得打字嘛,點擊右側快捷回復->
您需要登錄后才可以回帖 登錄 | 注冊(分享大片)

本版積分規則

影視帝國免責聲明
本站提供網上學習交流和自由討論使用,所有資源均來自互聯網公開渠道,發布和個人言論并不代表本站立場,本站不負任何責任.
如發現有侵權行為,請與我們聯系.我們將立刻從網站上刪除,并向所有持版權者致最深歉意.
影視帝國論壇已經安全運行

QQ|小黑屋|手機版|Archiver|古哥論壇

GMT+8, 2019-11-21 08:06 , Processed in 0.218091 second(s), 19 queries , Gzip On.

Powered by Discuz! X3.4

© 2001-2017 Comsenz Inc.

快速回復 返回頂部 返回列表
6肖中特期期准最新