古哥論壇

 找回密碼
 注冊(分享大片)
查看: 386|回復: 9
打印 上一主題 下一主題

[再造戰士]1992.NEW.REMASTERED.1080p.BluRay.REMUX.AVC.DTS-HD.MA.5.1-FGT 29.07GB

[復制鏈接]
跳轉到指定樓層
1#
發表于 2019-11-5 23:01:29 | 只看該作者 回帖獎勵 |倒序瀏覽 |閱讀模式
4K天堂


◎譯  名 再造戰士 / 宇宙戰士 / 魔鬼命令
◎片  名 Universal Soldier
◎年  代 1992
◎產  地 美國
◎類  別 劇情 / 動作 / 科幻
◎語  言 英語
◎上映日期 1992-07-10
◎IMDb評分 6.0/10 from 78583 users
◎IMDb鏈接 https://www.imdb.com/title/tt0105698
◎豆瓣評分 6.6/10 from 2917 users
◎藍光高清   http://www.4ktt.com
◎片  長 102 分鐘
◎導  演 羅蘭·艾默里奇 Roland Emmerich
◎編  劇 Christopher Leitch / Richard Rothstein
◎主  演 杜夫·朗格 Dolph Lundgren
      尚格·云頓 Jean-Claude Van Damme
      艾利·沃克 Ally Walker


◎標  簽 科幻 | 動作 | 美國 | 尚格·云頓 | 1992 | 美國電影 | 暴力 | 動作片

◎簡  介

  越戰后,美國政府進行了一項絕密的科學計劃。科學家們將越戰中犧牲的士兵的尸體冰凍起來,植入電腦芯片,輸入戰爭程序,講他們改造成為新一代的戰爭機器人――“宇宙戰士”,這些機器人沒有情感和以前的記憶,只有冰冷的殺戮武器。士兵盧克(尚格?云頓 Jean-Claude Van Damme 飾)和班長安德魯(杜夫?朗格 Dolph Lundgren 飾)就是其中兩員,他們被派往參加一場新的戰爭。戰爭中,兩人的芯片突然出錯,令兩人都恢復了以前的記憶。
  盧克記起越戰當年正是安德魯突然性情大變將屬下和俘虜都殺光,誤闖美軍基地的女記者羅伯斯(艾麗?沃克 Ally Walker 飾)意外獲悉了美軍這一秘密。本來羅伯斯難逃一死,關鍵時刻盧克救走了她。于是,美軍派出所有的宇宙戰士開始追殺二人。
Video
ID : 1
Format : AVC
Format/Info : Advanced Video Codec
Format profile : [email protected]
Format settings : CABAC / 4 Ref Frames
Format settings, CABAC : Yes
Format settings, Reference frames : 4 frames
Codec ID : V_MPEG4/ISO/AVC
Duration : 1 h 43 min
Bit rate mode : Variable
Bit rate : 27.9 Mb/s
Maximum bit rate : 31.0 Mb/s
Width : 1 920 pixels
Height : 1 080 pixels
Display aspect ratio : 16:9
Frame rate mode : Constant
Frame rate : 24.000 FPS
Color space : YUV
Chroma subsampling : 4:2:0
Bit depth : 8 bits
Scan type : Progressive
Bits/(Pixel*Frame) : 0.560
Stream size : 20.1 GiB (69%)
Title : Universal.Soldier.1992.NEW.REMASTERED.1080p.BluRay.REMUX.AVC.DTS-HD.MA.5.1-FGT
Language : English
Default : No
Forced : No

Audio #1
ID : 2
Format : DTS XLL
Format/Info : Digital Theater Systems
Commercial name : DTS-HD Master Audio
Codec ID : A_DTS
Duration : 1 h 43 min
Bit rate mode : Variable
Bit rate : 4 287 kb/s
Channel(s) : 6 channels
Channel layout : C L R Ls Rs LFE
Sampling rate : 48.0 kHz
Frame rate : 93.750 FPS (512 SPF)
Bit depth : 24 bits
Compression mode : Lossless
Stream size : 3.09 GiB (11%)
Title : Universal.Soldier.1992.NEW.REMASTERED.1080p.BluRay.REMUX.AVC.DTS-HD.MA.5.1-FGT
Language : English
Default : Yes
Forced : No

Audio #2
ID : 3
Format : DTS XLL
Format/Info : Digital Theater Systems
Commercial name : DTS-HD Master Audio
Codec ID : A_DTS
Duration : 1 h 43 min
Bit rate mode : Variable
Bit rate : 3 892 kb/s
Channel(s) : 6 channels
Channel layout : C L R Ls Rs LFE
Sampling rate : 48.0 kHz
Frame rate : 93.750 FPS (512 SPF)
Bit depth : 24 bits
Compression mode : Lossless
Stream size : 2.81 GiB (10%)
Title : Universal.Soldier.1992.NEW.REMASTERED.1080p.BluRay.REMUX.AVC.DTS-HD.MA.5.1-FGT
Language : German
Default : No
Forced : No

Audio #3
ID : 4
Format : DTS XLL
Format/Info : Digital Theater Systems
Commercial name : DTS-HD Master Audio
Codec ID : A_DTS
Duration : 1 h 43 min
Bit rate mode : Variable
Bit rate : 3 524 kb/s
Channel(s) : 6 channels
Channel layout : C L R Ls Rs LFE
Sampling rate : 48.0 kHz
Frame rate : 93.750 FPS (512 SPF)
Bit depth : 24 bits
Compression mode : Lossless
Stream size : 2.54 GiB (9%)
Title : Universal.Soldier.1992.NEW.REMASTERED.1080p.BluRay.REMUX.AVC.DTS-HD.MA.5.1-FGT
Language : French
Default : No
Forced : No

Audio #4
ID : 5
Format : DTS
Format/Info : Digital Theater Systems
Codec ID : A_DTS
Duration : 1 h 43 min
Bit rate mode : Constant
Bit rate : 318 kb/s
Channel(s) : 2 channels
Channel layout : L R
Sampling rate : 48.0 kHz
Frame rate : 93.750 FPS (512 SPF)
Bit depth : 24 bits
Compression mode : Lossy
Stream size : 235 MiB (1%)
Title : Universal.Soldier.1992.NEW.REMASTERED.1080p.BluRay.REMUX.AVC.DTS-HD.MA.5.1-FGT
Language : English
Default : No
Forced : No

Audio #5
ID : 6
Format : DTS
Format/Info : Digital Theater Systems
Codec ID : A_DTS
Duration : 1 h 43 min
Bit rate mode : Constant
Bit rate : 318 kb/s
Channel(s) : 2 channels
Channel layout : L R
Sampling rate : 48.0 kHz
Frame rate : 93.750 FPS (512 SPF)
Bit depth : 24 bits
Compression mode : Lossy
Stream size : 235 MiB (1%)
Title : Universal.Soldier.1992.NEW.REMASTERED.1080p.BluRay.REMUX.AVC.DTS-HD.MA.5.1-FGT
Language : English
Default : No
Forced : No

Text #1
ID : 7
Format : UTF-8
Codec ID : S_TEXT/UTF8
Codec ID/Info : UTF-8 Plain Text
Duration : 1 h 36 min
Bit rate : 47 b/s
Count of elements : 1050
Stream size : 33.3 KiB (0%)
Title : English-SRT
Language : English
Default : Yes
Forced : No

Text #2
ID : 8
Format : UTF-8
Codec ID : S_TEXT/UTF8
Codec ID/Info : UTF-8 Plain Text
Duration : 1 h 37 min
Bit rate : 57 b/s
Count of elements : 1246
Stream size : 40.7 KiB (0%)
Title : English-SDH-SRT
Language : English
Default : No
Forced : No

Text #3
ID : 9
Format : PGS
Muxing mode : zlib
Codec ID : S_HDMV/PGS
Codec ID/Info : Picture based subtitle format used on BDs/HD-DVDs
Duration : 1 h 41 min
Bit rate : 21.6 kb/s
Count of elements : 1660
Stream size : 15.7 MiB (0%)
Title : German-PGS
Language : German
Default : No
Forced : No

Text #4
ID : 10
Format : PGS
Muxing mode : zlib
Codec ID : S_HDMV/PGS
Codec ID/Info : Picture based subtitle format used on BDs/HD-DVDs
Duration : 1 h 37 min
Bit rate : 31.4 kb/s
Count of elements : 2493
Stream size : 21.8 MiB (0%)
Title : English-PGS
Language : English
Default : No
Forced : No

Text #5
ID : 11
Format : PGS
Muxing mode : zlib
Codec ID : S_HDMV/PGS
Codec ID/Info : Picture based subtitle format used on BDs/HD-DVDs
Duration : 1 h 41 min
Bit rate : 17.0 kb/s
Count of elements : 1888
Stream size : 12.4 MiB (0%)
Title : French-PGS
Language : French
Default : No
Forced : No

Text #6
ID : 12
Format : PGS
Muxing mode : zlib
Codec ID : S_HDMV/PGS
Codec ID/Info : Picture based subtitle format used on BDs/HD-DVDs
Duration : 1 h 38 min
Bit rate : 30.5 kb/s
Count of elements : 2186
Stream size : 21.5 MiB (0%)
Title : German-PGS
Language : German
Default : No
Forced : No

Text #7
ID : 13
Format : PGS
Muxing mode : zlib
Codec ID : S_HDMV/PGS
Codec ID/Info : Picture based subtitle format used on BDs/HD-DVDs
Duration : 1 h 38 min
Bit rate : 30.5 kb/s
Count of elements : 2188
Stream size : 21.6 MiB (0%)
Title : French-PGS
Language : French
Default : No
Forced : No

Text #8
ID : 14
Format : PGS
Muxing mode : zlib
Codec ID : S_HDMV/PGS
Codec ID/Info : Picture based subtitle format used on BDs/HD-DVDs
Duration : 1 h 36 min
Bit rate : 23.2 kb/s
Count of elements : 1291
Stream size : 16.0 MiB (0%)
Title : German-PGS
Language : German
Default : No
Forced : No

Text #9
ID : 15
Format : PGS
Muxing mode : zlib
Codec ID : S_HDMV/PGS
Codec ID/Info : Picture based subtitle format used on BDs/HD-DVDs
Duration : 1 h 13 min
Bit rate : 174 b/s
Count of elements : 10
Stream size : 93.9 KiB (0%)
Title : German-FORCED-PGS
Language : German
Default : No
Forced : No

Text #10
ID : 16
Format : PGS
Muxing mode : zlib
Codec ID : S_HDMV/PGS
Codec ID/Info : Picture based subtitle format used on BDs/HD-DVDs
Duration : 1 h 13 min
Bit rate : 160 b/s
Count of elements : 10
Stream size : 86.5 KiB (0%)
Title : French-FORCED-PGS
Language : French
Default : No
Forced : No

Menu
00:00:00.000 : en:Chapter 01
00:10:27.500 : en:Chapter 02
00:20:51.833 : en:Chapter 03
00:31:24.750 : en:Chapter 04
00:42:41.333 : en:Chapter 05
00:53:13.833 : en:Chapter 06
01:04:07.500 : en:Chapter 07
01:14:22.666 : en:Chapter 08
01:21:53.333 : en:Chapter 09
01:31:32.875 : en:Chapter 10





Universal.Soldier.1992.NEW.REMASTERED.1080p.BluRay.REMUX.AVC.DTS-HD.MA.5.1-FGT.torrent (73.27 KB, 下載次數: 6)

提示:如迅雷下載提示"任務出錯"、"因版權無法下載",請更換【迅雷5】,提取碼: ai7u
古哥影視論壇www.tdtiyl.tw 高清電影,藍光電影,最新電影,電影天堂,影視帝國,人人影視
提示:如迅雷下載提示"任務出錯"、"因版權無法下載",請更換【迅雷5】,提取碼: ai7u
2#
發表于 2019-11-6 00:19:20 | 只看該作者
感謝分享,下載看看
古哥影視論壇www.tdtiyl.tw 高清電影,藍光電影,最新電影,電影天堂,影視帝國,人人影視
回復 支持 反對

使用道具 舉報

3#
發表于 2019-11-6 09:35:08 | 只看該作者
我只能將古哥影視分享給我的電影愛好者群里!
古哥影視論壇www.tdtiyl.tw 高清電影,藍光電影,最新電影,電影天堂,影視帝國,人人影視
回復 支持 反對

使用道具 舉報

4#
發表于 2019-11-6 10:17:24 | 只看該作者
樓主發貼辛苦了,謝謝樓主分享!我覺得古哥影視的電影是最值得收藏的!
古哥影視論壇www.tdtiyl.tw 高清電影,藍光電影,最新電影,電影天堂,影視帝國,人人影視
回復 支持 反對

使用道具 舉報

5#
發表于 6 天前 | 只看該作者
樓主發貼辛苦了,謝謝樓主分享!我覺得古哥影視的電影是最值得收藏的!





......
古哥影視論壇www.tdtiyl.tw 高清電影,藍光電影,最新電影,電影天堂,影視帝國,人人影視
回復 支持 反對

使用道具 舉報

6#
發表于 6 天前 | 只看該作者
這東西我收了!謝謝樓主!古哥影視真好!一定要堅持下去,支持不住時請讓大家捐助





......
古哥影視論壇www.tdtiyl.tw 高清電影,藍光電影,最新電影,電影天堂,影視帝國,人人影視
回復 支持 反對

使用道具 舉報

7#
發表于 6 天前 | 只看該作者
樓主發貼辛苦了,謝謝樓主分享!我覺得古哥影視的電影是最值得收藏的!





......
古哥影視論壇www.tdtiyl.tw 高清電影,藍光電影,最新電影,電影天堂,影視帝國,人人影視
回復 支持 反對

使用道具 舉報

8#
發表于 6 天前 | 只看該作者
樓主太厲害了!樓主,I*老*虎*U!古哥影視絕對是電影愛好的天堂!





......
古哥影視論壇www.tdtiyl.tw 高清電影,藍光電影,最新電影,電影天堂,影視帝國,人人影視
回復 支持 反對

使用道具 舉報

9#
發表于 6 天前 | 只看該作者
樓主太厲害了!樓主,I*老*虎*U!古哥影視絕對是電影愛好的天堂!





......
古哥影視論壇www.tdtiyl.tw 高清電影,藍光電影,最新電影,電影天堂,影視帝國,人人影視
回復 支持 反對

使用道具 舉報

10#
發表于 前天 11:00 | 只看該作者

這東西我收了!謝謝樓主!古哥影視真好!一定要堅持下去,支持不住時請讓大家捐助
古哥影視論壇www.tdtiyl.tw 高清電影,藍光電影,最新電影,電影天堂,影視帝國,人人影視
回復 支持 反對

使用道具 舉報

懶得打字嘛,點擊右側快捷回復->
您需要登錄后才可以回帖 登錄 | 注冊(分享大片)

本版積分規則

影視帝國免責聲明
本站提供網上學習交流和自由討論使用,所有資源均來自互聯網公開渠道,發布和個人言論并不代表本站立場,本站不負任何責任.
如發現有侵權行為,請與我們聯系.我們將立刻從網站上刪除,并向所有持版權者致最深歉意.
影視帝國論壇已經安全運行

QQ|小黑屋|手機版|Archiver|古哥論壇

GMT+8, 2019-11-21 09:27 , Processed in 0.196633 second(s), 18 queries , Gzip On.

Powered by Discuz! X3.4

© 2001-2017 Comsenz Inc.

快速回復 返回頂部 返回列表
6肖中特期期准最新