古哥論壇

 找回密碼
 注冊(分享大片)
查看: 415|回復: 10
打印 上一主題 下一主題

[鯊海逃生]2019.1080p.BluRay.REMUX.AVC.DTS-HD.MA.5.1-FGT 18.99GB

[復制鏈接]
跳轉到指定樓層
1#
發表于 2019-11-5 23:03:00 | 只看該作者 回帖獎勵 |倒序瀏覽 |閱讀模式
4K天堂


◎譯  名 鯊海逃生 / 47 Meters Down: The Next Chapter / 48 Meters Down / 鯊海2 / 鯊海47米:狂鯊出籠 (港) / 鯊海47:猛鯊出籠
◎片  名 47 Meters Down: Uncaged
◎年  代 2019
◎產  地 英國
◎類  別 劇情 / 驚悚 / 恐怖 / 冒險
◎語  言 英語
◎上映日期 2019-08-16(美國)
◎IMDb評分 5.1/10 from 3402 users
◎IMDb鏈接 https://www.imdb.com/title/tt7329656
◎豆瓣評分 6.2/10 from 209 users
◎藍光高清   http://www.4ktt.com
◎片  長 89分鐘
◎導  演 約翰內斯·羅伯茨 Johannes Roberts
◎編  劇 歐內斯特·里埃拉 Ernest Riera / 約翰內斯·羅伯茨 Johannes Roberts
◎主  演 尼婭·朗 Nia Long
      約翰·考伯特 John Corbett
      蘇菲·奈麗絲 Sophie Nélisse
      科琳·福克斯 Corinne Foxx
      戴維·桑托斯 Davi Santos
      布芮妮·邱 Brianne Tju
      希斯蒂妮·史泰龍 Sistine Rose Stallone
      Khylin Rhambo

◎簡  介
  《鯊海47:猛鯊出籠》(47 Meters Down-Uncaged),演員陣容:史泰龍女兒Sistine Stallone和福克斯的女兒Corinne Foxx獻出表演首秀,John Corbett(《欲望都市》)、Nia Long(《嘻哈帝國》)、Sophie Nelisse(《偷書賊》)、Brianne Tju(劇版《驚聲尖叫》)、Davi Santos(《寶麗來》)、Khylin Rhambo(《少狼》)也出演,定檔2019年6月28日北美上映。

  講述4個青少年潛水進入了一個失落的水下城市,隨后在城里的迷宮一般的幽閉水下洞穴中,他們陷入極其恐怖的境地——嗜血鯊魚的領地。導演Johannes Roberts回歸,本周在多米尼加開拍。

Video
ID : 1
Format : AVC
Format/Info : Advanced Video Codec
Format profile : [email protected]
Format settings : CABAC / 4 Ref Frames
Format settings, CABAC : Yes
Format settings, Reference frames : 4 frames
Codec ID : V_MPEG4/ISO/AVC
Duration : 1 h 30 min
Bit rate mode : Variable
Bit rate : 24.3 Mb/s
Maximum bit rate : 37.0 Mb/s
Width : 1 920 pixels
Height : 1 080 pixels
Display aspect ratio : 16:9
Frame rate mode : Constant
Frame rate : 23.976 (24000/1001) FPS
Color space : YUV
Chroma subsampling : 4:2:0
Bit depth : 8 bits
Scan type : Progressive
Bits/(Pixel*Frame) : 0.489
Stream size : 15.3 GiB (81%)
Title : 47.Meters.Down.Uncaged.2019.1080p.BluRay.REMUX.AVC.DTS-HD.MA.5.1-FGT
Language : English
Default : No
Forced : No

Audio #1
ID : 2
Format : DTS XLL
Format/Info : Digital Theater Systems
Commercial name : DTS-HD Master Audio
Codec ID : A_DTS
Duration : 1 h 30 min
Bit rate mode : Variable
Bit rate : 3 896 kb/s
Channel(s) : 6 channels
Channel layout : C L R Ls Rs LFE
Sampling rate : 48.0 kHz
Frame rate : 93.750 FPS (512 SPF)
Bit depth : 24 bits
Compression mode : Lossless
Stream size : 2.45 GiB (13%)
Title : 47.Meters.Down.Uncaged.2019.1080p.BluRay.REMUX.AVC.DTS-HD.MA.5.1-FGT
Language : English
Default : Yes
Forced : No

Audio #2
ID : 3
Format : DTS
Format/Info : Digital Theater Systems
Codec ID : A_DTS
Duration : 1 h 30 min
Bit rate mode : Constant
Bit rate : 1 509 kb/s
Channel(s) : 6 channels
Channel layout : C L R Ls Rs LFE
Sampling rate : 48.0 kHz
Frame rate : 93.750 FPS (512 SPF)
Bit depth : 24 bits
Compression mode : Lossy
Stream size : 972 MiB (5%)
Title : 47.Meters.Down.Uncaged.2019.1080p.BluRay.REMUX.AVC.DTS-HD.MA.5.1-FGT
Language : English
Default : No
Forced : No

Audio #3
ID : 4
Format : AC-3
Format/Info : Audio Coding 3
Commercial name : Dolby Digital
Codec ID : A_AC3
Duration : 1 h 30 min
Bit rate mode : Constant
Bit rate : 224 kb/s
Channel(s) : 2 channels
Channel layout : L R
Sampling rate : 48.0 kHz
Frame rate : 31.250 FPS (1536 SPF)
Bit depth : 16 bits
Compression mode : Lossy
Stream size : 144 MiB (1%)
Title : 47.Meters.Down.Uncaged.2019.1080p.BluRay.REMUX.AVC.DTS-HD.MA.5.1-FGT
Language : English
Service kind : Complete Main
Default : No
Forced : No

Audio #4
ID : 5
Format : AC-3
Format/Info : Audio Coding 3
Commercial name : Dolby Digital
Codec ID : A_AC3
Duration : 1 h 30 min
Bit rate mode : Constant
Bit rate : 192 kb/s
Channel(s) : 2 channels
Channel layout : L R
Sampling rate : 48.0 kHz
Frame rate : 31.250 FPS (1536 SPF)
Bit depth : 16 bits
Compression mode : Lossy
Stream size : 124 MiB (1%)
Title : 47.Meters.Down.Uncaged.2019.1080p.BluRay.REMUX.AVC.DTS-HD.MA.5.1-FGT
Language : English
Service kind : Complete Main
Default : No
Forced : No

Text #1
ID : 6
Format : UTF-8
Codec ID : S_TEXT/UTF8
Codec ID/Info : UTF-8 Plain Text
Duration : 1 h 16 min
Bit rate : 35 b/s
Count of elements : 721
Stream size : 20.1 KiB (0%)
Title : English-SRT
Language : English
Default : Yes
Forced : No

Text #2
ID : 7
Format : PGS
Muxing mode : zlib
Codec ID : S_HDMV/PGS
Codec ID/Info : Picture based subtitle format used on BDs/HD-DVDs
Duration : 1 h 17 min
Bit rate : 32.7 kb/s
Count of elements : 1744
Stream size : 18.0 MiB (0%)
Title : English-PGS
Language : English
Default : No
Forced : No

Text #3
ID : 8
Format : PGS
Muxing mode : zlib
Codec ID : S_HDMV/PGS
Codec ID/Info : Picture based subtitle format used on BDs/HD-DVDs
Duration : 1 h 17 min
Bit rate : 23.9 kb/s
Count of elements : 1506
Stream size : 13.2 MiB (0%)
Title : Spanish-PGS
Language : Spanish
Default : No
Forced : No

Menu
00:00:00.000 : en:Chapter 01
00:04:53.793 : en:Chapter 02
00:10:35.009 : en:Chapter 03
00:14:18.107 : en:Chapter 04
00:19:59.990 : en:Chapter 05
00:23:56.101 : en:Chapter 06
00:29:16.421 : en:Chapter 07
00:35:00.389 : en:Chapter 08
00:39:15.770 : en:Chapter 09
00:44:44.890 : en:Chapter 10
00:50:50.130 : en:Chapter 11
00:54:37.232 : en:Chapter 12
01:01:03.660 : en:Chapter 13
01:05:18.664 : en:Chapter 14
01:10:12.750 : en:Chapter 15
01:15:22.518 : en:Chapter 16





47.Meters.Down.Uncaged.2019.1080p.BluRay.REMUX.AVC.DTS-HD.MA.5.1-FGT.torrent (95.5 KB, 下載次數: 38)

提示:如迅雷下載提示"任務出錯"、"因版權無法下載",請更換【迅雷5】,提取碼: ai7u
古哥影視論壇www.tdtiyl.tw 高清電影,藍光電影,最新電影,電影天堂,影視帝國,人人影視
提示:如迅雷下載提示"任務出錯"、"因版權無法下載",請更換【迅雷5】,提取碼: ai7u
2#
發表于 2019-11-6 00:15:45 | 只看該作者
感謝分享,下載了
古哥影視論壇www.tdtiyl.tw 高清電影,藍光電影,最新電影,電影天堂,影視帝國,人人影視
回復 支持 反對

使用道具 舉報

3#
發表于 2019-11-6 09:36:16 | 只看該作者
劇情很緊湊
古哥影視論壇www.tdtiyl.tw 高清電影,藍光電影,最新電影,電影天堂,影視帝國,人人影視
回復 支持 反對

使用道具 舉報

4#
發表于 2019-11-6 09:36:25 | 只看該作者

感謝樓主的無私分享!謝謝。
古哥影視論壇www.tdtiyl.tw 高清電影,藍光電影,最新電影,電影天堂,影視帝國,人人影視
回復 支持 反對

使用道具 舉報

5#
發表于 2019-11-6 09:49:59 | 只看該作者
強帖,強帖,強帖  重要的事情說三遍!
古哥影視論壇www.tdtiyl.tw 高清電影,藍光電影,最新電影,電影天堂,影視帝國,人人影視
回復 支持 反對

使用道具 舉報

6#
發表于 6 天前 | 只看該作者
這個帖子不回對不起自己!我想我是一天也不能離開古哥影視





......
古哥影視論壇www.tdtiyl.tw 高清電影,藍光電影,最新電影,電影天堂,影視帝國,人人影視
回復 支持 反對

使用道具 舉報

7#
發表于 6 天前 | 只看該作者
這個帖子不回對不起自己!我想我是一天也不能離開古哥影視





......
古哥影視論壇www.tdtiyl.tw 高清電影,藍光電影,最新電影,電影天堂,影視帝國,人人影視
回復 支持 反對

使用道具 舉報

8#
發表于 6 天前 | 只看該作者
我看不錯噢 謝謝樓主!古哥影視越來越好,高清電影還得上這來下載





......
古哥影視論壇www.tdtiyl.tw 高清電影,藍光電影,最新電影,電影天堂,影視帝國,人人影視
回復 支持 反對

使用道具 舉報

9#
發表于 6 天前 | 只看該作者
樓主太厲害了!樓主,I*老*虎*U!古哥影視絕對是電影愛好的天堂!





......
古哥影視論壇www.tdtiyl.tw 高清電影,藍光電影,最新電影,電影天堂,影視帝國,人人影視
回復 支持 反對

使用道具 舉報

10#
發表于 6 天前 | 只看該作者
樓主太厲害了!樓主,I*老*虎*U!古哥影視絕對是電影愛好的天堂!





......
古哥影視論壇www.tdtiyl.tw 高清電影,藍光電影,最新電影,電影天堂,影視帝國,人人影視
回復 支持 反對

使用道具 舉報

11#
發表于 5 天前 | 只看該作者
這高清版本好是好,就是占我硬盤空間太大。好片還是要下的,非常感謝樓主的分享。
古哥影視論壇www.tdtiyl.tw 高清電影,藍光電影,最新電影,電影天堂,影視帝國,人人影視
回復 支持 反對

使用道具 舉報

懶得打字嘛,點擊右側快捷回復->
您需要登錄后才可以回帖 登錄 | 注冊(分享大片)

本版積分規則

影視帝國免責聲明
本站提供網上學習交流和自由討論使用,所有資源均來自互聯網公開渠道,發布和個人言論并不代表本站立場,本站不負任何責任.
如發現有侵權行為,請與我們聯系.我們將立刻從網站上刪除,并向所有持版權者致最深歉意.
影視帝國論壇已經安全運行

QQ|小黑屋|手機版|Archiver|古哥論壇

GMT+8, 2019-11-21 10:03 , Processed in 0.193918 second(s), 18 queries , Gzip On.

Powered by Discuz! X3.4

© 2001-2017 Comsenz Inc.

快速回復 返回頂部 返回列表
6肖中特期期准最新