古哥論壇

 找回密碼
 注冊(分享大片)
查看: 433|回復: 14
打印 上一主題 下一主題

[我在雨中等你]2019.1080p.BluRay.REMUX.AVC.DTS-HD.MA.7.1-FGT 27.72GB

[復制鏈接]
跳轉到指定樓層
1#
發表于 2019-11-5 23:04:17 | 只看該作者 回帖獎勵 |倒序瀏覽 |閱讀模式
4K天堂


◎譯  名 我在雨中等你
◎片  名 The Art of Racing in the Rain
◎年  代 2019
◎產  地 美國
◎類  別 劇情 / 喜劇
◎語  言 英語
◎上映日期 2019-08-09(美國)
◎IMDb評分 7.4/10 from 3635 users
◎IMDb鏈接 https://www.imdb.com/title/tt1478839
◎豆瓣評分 7.9/10 from 219 users
◎藍光高清   http://www.4ktt.com
◎片  長 109分鐘
◎導  演 西蒙·柯蒂斯 Simon Curtis
◎編  劇 馬克·鮑姆貝克 Mark Bomback / 加斯·斯坦 Garth Stein
◎主  演 凱文·科斯特納 Kevin Costner
      米洛·文堤米利亞 Milo Ventimiglia
      阿曼達·塞弗里德 Amanda Seyfried
      馬丁·唐文 Martin Donovan
      蓋瑞·科爾 Gary Cole
      凱西·貝克 Kathy Baker
      阿爾·薩皮恩扎 Al Sapienza
      莉莉·多斯沃斯 埃文斯 Lily Dodsworth-Evans
      賴恩·基拉·阿姆斯特朗 Ryan Kiera Armstrong
      凱倫·霍爾尼斯 Karen Holness
      麥金利·貝爾徹三世 McKinley Belcher III
      阿里薩·維拉尼 Aliza Vellani
      伊麗莎白·鮑恩 Elizabeth Bowen
      帕特里克·羅卡斯 Patrick Roccas
      李利強 Leo Li Chiang
      吉安皮羅·科格諾利 Gianpiero Cognoli


◎簡  介
  影片改編自Garth Stein所著同名暢銷小說,聚焦一只名叫恩佐的狗狗,和他的主人——職業賽車手Denny Swift,恩佐跟著Denny學會了很多生活哲學。

Video
ID : 1
Format : AVC
Format/Info : Advanced Video Codec
Format profile : [email protected]
Format settings : CABAC / 4 Ref Frames
Format settings, CABAC : Yes
Format settings, Reference frames : 4 frames
Codec ID : V_MPEG4/ISO/AVC
Duration : 1 h 48 min
Bit rate mode : Variable
Bit rate : 29.8 Mb/s
Maximum bit rate : 31.0 Mb/s
Width : 1 920 pixels
Height : 1 080 pixels
Display aspect ratio : 16:9
Frame rate mode : Constant
Frame rate : 23.976 (24000/1001) FPS
Color space : YUV
Chroma subsampling : 4:2:0
Bit depth : 8 bits
Scan type : Progressive
Bits/(Pixel*Frame) : 0.599
Stream size : 22.6 GiB (82%)
Title : The.Art.of.Racing.in.the.Rain.2019.1080p.BluRay.REMUX.AVC.DTS-HD.MA.7.1-FGT
Language : English
Default : No
Forced : No

Audio #1
ID : 2
Format : DTS XLL
Format/Info : Digital Theater Systems
Commercial name : DTS-HD Master Audio
Codec ID : A_DTS
Duration : 1 h 48 min
Bit rate mode : Variable
Bit rate : 4 906 kb/s
Channel(s) : 8 channels
Channel layout : C L R LFE Lb Rb Lss Rss
Sampling rate : 48.0 kHz
Frame rate : 93.750 FPS (512 SPF)
Bit depth : 24 bits
Compression mode : Lossless
Stream size : 3.73 GiB (13%)
Title : The.Art.of.Racing.in.the.Rain.2019.1080p.BluRay.REMUX.AVC.DTS-HD.MA.7.1-FGT
Language : English
Default : Yes
Forced : No

Audio #2
ID : 3
Format : AC-3
Format/Info : Audio Coding 3
Commercial name : Dolby Digital
Codec ID : A_AC3
Duration : 1 h 48 min
Bit rate mode : Constant
Bit rate : 448 kb/s
Channel(s) : 6 channels
Channel layout : L R C LFE Ls Rs
Sampling rate : 48.0 kHz
Frame rate : 31.250 FPS (1536 SPF)
Bit depth : 16 bits
Compression mode : Lossy
Stream size : 349 MiB (1%)
Title : The.Art.of.Racing.in.the.Rain.2019.1080p.BluRay.REMUX.AVC.DTS-HD.MA.7.1-FGT
Language : English
Service kind : Complete Main
Default : No
Forced : No

Audio #3
ID : 4
Format : AC-3
Format/Info : Audio Coding 3
Commercial name : Dolby Digital
Codec ID : A_AC3
Duration : 1 h 48 min
Bit rate mode : Constant
Bit rate : 448 kb/s
Channel(s) : 6 channels
Channel layout : L R C LFE Ls Rs
Sampling rate : 48.0 kHz
Frame rate : 31.250 FPS (1536 SPF)
Bit depth : 16 bits
Compression mode : Lossy
Stream size : 349 MiB (1%)
Title : The.Art.of.Racing.in.the.Rain.2019.1080p.BluRay.REMUX.AVC.DTS-HD.MA.7.1-FGT
Language : Spanish
Service kind : Complete Main
Default : No
Forced : No

Audio #4
ID : 5
Format : AC-3
Format/Info : Audio Coding 3
Commercial name : Dolby Digital
Codec ID : A_AC3
Duration : 1 h 48 min
Bit rate mode : Constant
Bit rate : 448 kb/s
Channel(s) : 6 channels
Channel layout : L R C LFE Ls Rs
Sampling rate : 48.0 kHz
Frame rate : 31.250 FPS (1536 SPF)
Bit depth : 16 bits
Compression mode : Lossy
Stream size : 349 MiB (1%)
Title : The.Art.of.Racing.in.the.Rain.2019.1080p.BluRay.REMUX.AVC.DTS-HD.MA.7.1-FGT
Language : French
Service kind : Complete Main
Default : No
Forced : No

Audio #5
ID : 6
Format : AC-3
Format/Info : Audio Coding 3
Commercial name : Dolby Digital
Codec ID : A_AC3
Duration : 1 h 48 min
Bit rate mode : Constant
Bit rate : 224 kb/s
Channel(s) : 2 channels
Channel layout : L R
Sampling rate : 48.0 kHz
Frame rate : 31.250 FPS (1536 SPF)
Bit depth : 16 bits
Compression mode : Lossy
Stream size : 174 MiB (1%)
Title : The.Art.of.Racing.in.the.Rain.2019.1080p.BluRay.REMUX.AVC.DTS-HD.MA.7.1-FGT
Language : English
Service kind : Complete Main
Default : No
Forced : No

Text #1
ID : 7
Format : UTF-8
Codec ID : S_TEXT/UTF8
Codec ID/Info : UTF-8 Plain Text
Duration : 1 h 40 min
Bit rate : 71 b/s
Count of elements : 1516
Stream size : 53.2 KiB (0%)
Title : English-SRT
Language : English
Default : Yes
Forced : No

Text #2
ID : 8
Format : PGS
Muxing mode : zlib
Codec ID : S_HDMV/PGS
Codec ID/Info : Picture based subtitle format used on BDs/HD-DVDs
Duration : 1 h 48 min
Bit rate : 88.3 kb/s
Count of elements : 3534
Stream size : 68.4 MiB (0%)
Title : English-PGS
Language : English
Default : No
Forced : No

Text #3
ID : 9
Format : PGS
Muxing mode : zlib
Codec ID : S_HDMV/PGS
Codec ID/Info : Picture based subtitle format used on BDs/HD-DVDs
Duration : 1 h 48 min
Bit rate : 64.4 kb/s
Count of elements : 2742
Stream size : 49.9 MiB (0%)
Title : Spanish-PGS
Language : Spanish
Default : No
Forced : No

Text #4
ID : 10
Format : PGS
Muxing mode : zlib
Codec ID : S_HDMV/PGS
Codec ID/Info : Picture based subtitle format used on BDs/HD-DVDs
Duration : 25 min 17 s
Bit rate : 454 b/s
Count of elements : 4
Stream size : 84.1 KiB (0%)
Title : Spanish-FORCED-PGS
Language : Spanish
Default : No
Forced : No

Text #5
ID : 11
Format : PGS
Muxing mode : zlib
Codec ID : S_HDMV/PGS
Codec ID/Info : Picture based subtitle format used on BDs/HD-DVDs
Duration : 1 h 48 min
Bit rate : 63.1 kb/s
Count of elements : 2838
Stream size : 48.9 MiB (0%)
Title : French-PGS
Language : French
Default : No
Forced : No

Text #6
ID : 12
Format : PGS
Muxing mode : zlib
Codec ID : S_HDMV/PGS
Codec ID/Info : Picture based subtitle format used on BDs/HD-DVDs
Duration : 1 h 45 min
Bit rate : 1 215 b/s
Count of elements : 40
Stream size : 936 KiB (0%)
Title : French-FORCED-PGS
Language : French
Default : No
Forced : No

Text #7
ID : 13
Format : PGS
Muxing mode : zlib
Codec ID : S_HDMV/PGS
Codec ID/Info : Picture based subtitle format used on BDs/HD-DVDs
Duration : 1 h 41 min
Bit rate : 113 kb/s
Count of elements : 3626
Stream size : 81.9 MiB (0%)
Title : English-COMMENTARY-PGS
Language : English
Default : No
Forced : No

Text #8
ID : 14
Format : PGS
Muxing mode : zlib
Codec ID : S_HDMV/PGS
Codec ID/Info : Picture based subtitle format used on BDs/HD-DVDs
Duration : 1 h 48 min
Bit rate : 98.1 kb/s
Count of elements : 3552
Stream size : 76.0 MiB (0%)
Title : Spanish-COMMENTARY-PGS
Language : Spanish
Default : No
Forced : No

Text #9
ID : 15
Format : PGS
Muxing mode : zlib
Codec ID : S_HDMV/PGS
Codec ID/Info : Picture based subtitle format used on BDs/HD-DVDs
Duration : 1 h 48 min
Bit rate : 106 kb/s
Count of elements : 3538
Stream size : 82.2 MiB (0%)
Title : French-COMMENTARY-PGS
Language : French
Default : No
Forced : No

Menu
00:00:00.000 : en:Chapter 01
00:04:51.582 : en:Chapter 02
00:10:34.884 : en:Chapter 03
00:13:59.588 : en:Chapter 04
00:17:26.712 : en:Chapter 05
00:20:54.920 : en:Chapter 06
00:26:08.733 : en:Chapter 07
00:31:05.530 : en:Chapter 08
00:36:22.680 : en:Chapter 09
00:39:37.416 : en:Chapter 10
00:43:47.291 : en:Chapter 11
00:48:57.142 : en:Chapter 12
00:54:02.739 : en:Chapter 13
00:59:17.428 : en:Chapter 14
01:03:59.126 : en:Chapter 15
01:07:27.501 : en:Chapter 16
01:10:49.078 : en:Chapter 17
01:14:47.858 : en:Chapter 18
01:18:46.513 : en:Chapter 19
01:25:06.851 : en:Chapter 20
01:28:34.600 : en:Chapter 21
01:32:43.766 : en:Chapter 22
01:36:29.950 : en:Chapter 23
01:41:27.539 : en:Chapter 24





The.Art.of.Racing.in.the.Rain.2019.1080p.BluRay.REMUX.AVC.DTS-HD.MA.7.1-FGT.torrent (69.89 KB, 下載次數: 8)

提示:如迅雷下載提示"任務出錯"、"因版權無法下載",請更換【迅雷5】,提取碼: ai7u
古哥影視論壇www.tdtiyl.tw 高清電影,藍光電影,最新電影,電影天堂,影視帝國,人人影視
提示:如迅雷下載提示"任務出錯"、"因版權無法下載",請更換【迅雷5】,提取碼: ai7u
2#
發表于 2019-11-6 00:12:43 | 只看該作者
多謝分享,下載下載
古哥影視論壇www.tdtiyl.tw 高清電影,藍光電影,最新電影,電影天堂,影視帝國,人人影視
回復 支持 反對

使用道具 舉報

3#
發表于 2019-11-6 09:37:45 | 只看該作者

這東西我收了!謝謝樓主的無私分享。
古哥影視論壇www.tdtiyl.tw 高清電影,藍光電影,最新電影,電影天堂,影視帝國,人人影視
回復 支持 反對

使用道具 舉報

4#
發表于 2019-11-6 10:16:28 | 只看該作者

樓主太厲害了!樓主,I*老*虎*U!古哥影視絕對是電影愛好的天堂!
古哥影視論壇www.tdtiyl.tw 高清電影,藍光電影,最新電影,電影天堂,影視帝國,人人影視
回復 支持 反對

使用道具 舉報

5#
發表于 2019-11-6 10:45:18 | 只看該作者
樓主發貼辛苦了,謝謝樓主分享!我覺得古哥影視的電影是最值得收藏的!
古哥影視論壇www.tdtiyl.tw 高清電影,藍光電影,最新電影,電影天堂,影視帝國,人人影視
回復 支持 反對

使用道具 舉報

6#
發表于 2019-11-6 11:43:14 | 只看該作者
恩佐跟著Denny學會了很多生活哲學。
古哥影視論壇www.tdtiyl.tw 高清電影,藍光電影,最新電影,電影天堂,影視帝國,人人影視
回復 支持 反對

使用道具 舉報

7#
發表于 2019-11-6 22:14:26 | 只看該作者
樓主發貼辛苦了,謝謝樓主分享!我覺得古哥影視的電影是最值得收藏的!
古哥影視論壇www.tdtiyl.tw 高清電影,藍光電影,最新電影,電影天堂,影視帝國,人人影視
回復 支持 反對

使用道具 舉報

8#
發表于 2019-11-7 08:24:17 | 只看該作者
樓主發貼辛苦了,謝謝樓主分享!我覺得古哥影視的電影是最值得收藏的!
古哥影視論壇www.tdtiyl.tw 高清電影,藍光電影,最新電影,電影天堂,影視帝國,人人影視
回復 支持 反對

使用道具 舉報

9#
發表于 2019-11-7 08:35:51 | 只看該作者
謝謝樓主分享!
古哥影視論壇www.tdtiyl.tw 高清電影,藍光電影,最新電影,電影天堂,影視帝國,人人影視
回復 支持 反對

使用道具 舉報

10#
發表于 6 天前 | 只看該作者
樓主發貼辛苦了,謝謝樓主分享!我覺得古哥影視的電影是最值得收藏的!





......
古哥影視論壇www.tdtiyl.tw 高清電影,藍光電影,最新電影,電影天堂,影視帝國,人人影視
回復 支持 反對

使用道具 舉報

11#
發表于 6 天前 | 只看該作者
這東西我收了!謝謝樓主!古哥影視真好!一定要堅持下去,支持不住時請讓大家捐助





......
古哥影視論壇www.tdtiyl.tw 高清電影,藍光電影,最新電影,電影天堂,影視帝國,人人影視
回復 支持 反對

使用道具 舉報

12#
發表于 6 天前 | 只看該作者
既然你誠信誠意的推薦了,那我就勉為其難的看看吧!愛電影,愛生活古哥影視不走平凡路。





......
古哥影視論壇www.tdtiyl.tw 高清電影,藍光電影,最新電影,電影天堂,影視帝國,人人影視
回復 支持 反對

使用道具 舉報

13#
發表于 6 天前 | 只看該作者
樓主發貼辛苦了,謝謝樓主分享!我覺得古哥影視的電影是最值得收藏的!





......
古哥影視論壇www.tdtiyl.tw 高清電影,藍光電影,最新電影,電影天堂,影視帝國,人人影視
回復 支持 反對

使用道具 舉報

14#
發表于 6 天前 | 只看該作者
這個帖子不回對不起自己!我想我是一天也不能離開古哥影視





......
古哥影視論壇www.tdtiyl.tw 高清電影,藍光電影,最新電影,電影天堂,影視帝國,人人影視
回復 支持 反對

使用道具 舉報

15#
發表于 3 天前 | 只看該作者
樓主發貼辛苦了,謝謝樓主分享!我覺得古哥影視的電影是最值得收藏的!
古哥影視論壇www.tdtiyl.tw 高清電影,藍光電影,最新電影,電影天堂,影視帝國,人人影視
回復 支持 反對

使用道具 舉報

懶得打字嘛,點擊右側快捷回復->
您需要登錄后才可以回帖 登錄 | 注冊(分享大片)

本版積分規則

影視帝國免責聲明
本站提供網上學習交流和自由討論使用,所有資源均來自互聯網公開渠道,發布和個人言論并不代表本站立場,本站不負任何責任.
如發現有侵權行為,請與我們聯系.我們將立刻從網站上刪除,并向所有持版權者致最深歉意.
影視帝國論壇已經安全運行

QQ|小黑屋|手機版|Archiver|古哥論壇

GMT+8, 2019-11-21 08:27 , Processed in 0.203347 second(s), 18 queries , Gzip On.

Powered by Discuz! X3.4

© 2001-2017 Comsenz Inc.

快速回復 返回頂部 返回列表
6肖中特期期准最新