古哥論壇

 找回密碼
 注冊(分享大片)
查看: 520|回復: 19
打印 上一主題 下一主題

[憤怒的小鳥2]2019.1080p.BluRay.REMUX.AVC.DTS-HD.MA.5.1-FGT 18.69GB

[復制鏈接]
跳轉到指定樓層
1#
發表于 2019-11-5 23:06:01 | 只看該作者 回帖獎勵 |倒序瀏覽 |閱讀模式
4K天堂


◎譯  名 憤怒的小鳥2 / Angry Birds 2 / 憤怒的小鳥大電影2 / 憤怒鳥大電影2(港) / 憤怒鳥玩電影2(臺)
◎片  名 The Angry Birds Movie 2
◎年  代 2019
◎產  地 芬蘭 / 美國
◎類  別 喜劇 / 動畫 / 冒險
◎語  言 英語
◎上映日期 2019-08-14(美國) / 2019-08-16(中國大陸)
◎IMDb評分 6.5/10 from 4645 users
◎IMDb鏈接 https://www.imdb.com/title/tt6095472
◎豆瓣評分 7.2/10 from 15287 users
◎藍光高清   http://www.4ktt.com
◎片  長 96分鐘
◎導  演 圖魯普·范·奧爾曼 Thurop Van Orman
◎編  劇 彼得·阿克曼 Peter Ackerman
◎主  演 杰森·蘇戴奇斯 Jason Sudeikis
      比爾·哈德爾 Bill Hader
      喬什·加德 Josh Gad
      丹尼·麥克布萊德 Danny McBride
      彼特·丁拉基 Peter Dinklage
      妮琪·米娜 Nicki Minaj
      斯特林·K·布朗 Sterling K. Brown
      萊斯莉·瓊斯 Leslie Jones
      奧卡菲娜 Awkwafina
      蕾切爾·布魯姆 Rachel Bloom
      扎克·伍茲 Zach Woods
      歐赫尼奧·德爾維斯 Eugenio Derbez
      里爾·萊爾·哈瓦瑞 Lil Rel Howery
      德芙·卡梅隆 Dove Cameron
      貝克·班尼特 Beck Bennett
      布魯克琳·普林斯 Brooklynn Prince
      阿爾瑪·瓦薩諾 Alma Varsano
      菲絲·瑪格麗特·基德曼-厄本 Faith Margaret Kidman-Urban
      桑迪·蘿絲·厄本 Sunday Rose Urban
      吉妮西絲·坦尼翁 Genesis Tennon


◎簡  介
  十年“歡喜冤家”豬鳥依舊如往常一樣“互相拆臺”。然而,“不速之客”發射冰球襲擊了小鳥島和豬豬島,令雙方不得不放下芥蒂,小鳥島昔日英雄胖紅聯合小鳥伙伴們與曾經的對手“搗蛋豬”雷納德一行組建了臨時聯盟,他們將前往全新冰封島嶼上阻止神秘反派的滅世計劃。

Video
ID : 1
Format : AVC
Format/Info : Advanced Video Codec
Format profile : [email protected]
Format settings : CABAC / 2 Ref Frames
Format settings, CABAC : Yes
Format settings, Reference frames : 2 frames
Format settings, GOP : M=1, N=10
Codec ID : V_MPEG4/ISO/AVC
Duration : 1 h 36 min
Bit rate mode : Variable
Bit rate : 22.7 Mb/s
Width : 1 920 pixels
Height : 1 080 pixels
Display aspect ratio : 16:9
Frame rate mode : Constant
Frame rate : 23.976 (24000/1001) FPS
Color space : YUV
Chroma subsampling : 4:2:0
Bit depth : 8 bits
Scan type : Progressive
Bits/(Pixel*Frame) : 0.456
Stream size : 15.3 GiB (82%)
Title : The.Angry.Birds.Movie.2.2019.1080p.BluRay.REMUX.AVC.DTS-HD.MA.5.1-FGT
Language : English
Default : No
Forced : No

Audio #1
ID : 2
Format : DTS XLL
Format/Info : Digital Theater Systems
Commercial name : DTS-HD Master Audio
Codec ID : A_DTS
Duration : 1 h 36 min
Bit rate mode : Variable
Bit rate : 2 296 kb/s
Channel(s) : 6 channels
Channel layout : C L R Ls Rs LFE
Sampling rate : 48.0 kHz
Frame rate : 93.750 FPS (512 SPF)
Bit depth : 16 bits
Compression mode : Lossless
Stream size : 1.55 GiB (8%)
Title : The.Angry.Birds.Movie.2.2019.1080p.BluRay.REMUX.AVC.DTS-HD.MA.5.1-FGT
Language : English
Default : Yes
Forced : No

Audio #2
ID : 3
Format : AC-3
Format/Info : Audio Coding 3
Commercial name : Dolby Digital
Codec ID : A_AC3
Duration : 1 h 36 min
Bit rate mode : Constant
Bit rate : 640 kb/s
Channel(s) : 6 channels
Channel layout : L R C LFE Ls Rs
Sampling rate : 48.0 kHz
Frame rate : 31.250 FPS (1536 SPF)
Bit depth : 16 bits
Compression mode : Lossy
Stream size : 443 MiB (2%)
Title : The.Angry.Birds.Movie.2.2019.1080p.BluRay.REMUX.AVC.DTS-HD.MA.5.1-FGT
Language : English
Service kind : Complete Main
Default : No
Forced : No

Audio #3
ID : 4
Format : AC-3
Format/Info : Audio Coding 3
Commercial name : Dolby Digital
Codec ID : A_AC3
Duration : 1 h 36 min
Bit rate mode : Constant
Bit rate : 640 kb/s
Channel(s) : 6 channels
Channel layout : L R C LFE Ls Rs
Sampling rate : 48.0 kHz
Frame rate : 31.250 FPS (1536 SPF)
Bit depth : 16 bits
Compression mode : Lossy
Stream size : 443 MiB (2%)
Title : The.Angry.Birds.Movie.2.2019.1080p.BluRay.REMUX.AVC.DTS-HD.MA.5.1-FGT
Language : French
Service kind : Complete Main
Default : No
Forced : No

Audio #4
ID : 5
Format : AC-3
Format/Info : Audio Coding 3
Commercial name : Dolby Digital
Codec ID : A_AC3
Duration : 1 h 36 min
Bit rate mode : Constant
Bit rate : 640 kb/s
Channel(s) : 6 channels
Channel layout : L R C LFE Ls Rs
Sampling rate : 48.0 kHz
Frame rate : 31.250 FPS (1536 SPF)
Bit depth : 16 bits
Compression mode : Lossy
Stream size : 443 MiB (2%)
Title : The.Angry.Birds.Movie.2.2019.1080p.BluRay.REMUX.AVC.DTS-HD.MA.5.1-FGT
Language : French
Service kind : Complete Main
Default : No
Forced : No

Audio #5
ID : 6
Format : AC-3
Format/Info : Audio Coding 3
Commercial name : Dolby Digital
Codec ID : A_AC3
Duration : 1 h 36 min
Bit rate mode : Constant
Bit rate : 640 kb/s
Channel(s) : 6 channels
Channel layout : L R C LFE Ls Rs
Sampling rate : 48.0 kHz
Frame rate : 31.250 FPS (1536 SPF)
Bit depth : 16 bits
Compression mode : Lossy
Stream size : 443 MiB (2%)
Title : The.Angry.Birds.Movie.2.2019.1080p.BluRay.REMUX.AVC.DTS-HD.MA.5.1-FGT
Language : Spanish
Service kind : Complete Main
Default : No
Forced : No

Text #1
ID : 7
Format : UTF-8
Codec ID : S_TEXT/UTF8
Codec ID/Info : UTF-8 Plain Text
Duration : 1 h 33 min
Bit rate : 73 b/s
Count of elements : 1791
Stream size : 50.2 KiB (0%)
Title : English-SRT
Language : English
Default : Yes
Forced : No

Text #2
ID : 8
Format : PGS
Muxing mode : zlib
Codec ID : S_HDMV/PGS
Codec ID/Info : Picture based subtitle format used on BDs/HD-DVDs
Duration : 1 h 34 min
Bit rate : 48.6 kb/s
Count of elements : 3518
Stream size : 32.9 MiB (0%)
Title : English-SDH-PGS
Language : English
Default : No
Forced : No

Text #3
ID : 9
Format : PGS
Muxing mode : zlib
Codec ID : S_HDMV/PGS
Codec ID/Info : Picture based subtitle format used on BDs/HD-DVDs
Duration : 4 s 66 ms
Bit rate : 31.5 kb/s
Count of elements : 4
Stream size : 15.6 KiB (0%)
Title : English-FORCED-PGS
Language : English
Default : No
Forced : No

Text #4
ID : 10
Format : PGS
Muxing mode : zlib
Codec ID : S_HDMV/PGS
Codec ID/Info : Picture based subtitle format used on BDs/HD-DVDs
Duration : 1 h 27 min
Bit rate : 40.8 kb/s
Count of elements : 2646
Stream size : 25.5 MiB (0%)
Title : English-PGS
Language : English
Default : No
Forced : No

Text #5
ID : 11
Format : PGS
Muxing mode : zlib
Codec ID : S_HDMV/PGS
Codec ID/Info : Picture based subtitle format used on BDs/HD-DVDs
Duration : 4 s 66 ms
Bit rate : 31.5 kb/s
Count of elements : 4
Stream size : 15.6 KiB (0%)
Title : English-FORCED-PGS
Language : English
Default : No
Forced : No

Text #6
ID : 12
Format : PGS
Muxing mode : zlib
Codec ID : S_HDMV/PGS
Codec ID/Info : Picture based subtitle format used on BDs/HD-DVDs
Duration : 1 h 36 min
Bit rate : 31.1 kb/s
Count of elements : 2692
Stream size : 21.4 MiB (0%)
Title : French-PGS
Language : French
Default : No
Forced : No

Text #7
ID : 13
Format : PGS
Muxing mode : zlib
Codec ID : S_HDMV/PGS
Codec ID/Info : Picture based subtitle format used on BDs/HD-DVDs
Duration : 4 s 108 ms
Bit rate : 31.8 kb/s
Count of elements : 4
Stream size : 15.9 KiB (0%)
Title : French-FORCED-PGS
Language : French
Default : No
Forced : No

Text #8
ID : 14
Format : PGS
Muxing mode : zlib
Codec ID : S_HDMV/PGS
Codec ID/Info : Picture based subtitle format used on BDs/HD-DVDs
Duration : 1 h 36 min
Bit rate : 35.8 kb/s
Count of elements : 2738
Stream size : 24.6 MiB (0%)
Title : Spanish-PGS
Language : Spanish
Default : No
Forced : No

Text #9
ID : 15
Format : PGS
Muxing mode : zlib
Codec ID : S_HDMV/PGS
Codec ID/Info : Picture based subtitle format used on BDs/HD-DVDs
Duration : 1 h 36 min
Bit rate : 390 b/s
Count of elements : 36
Stream size : 275 KiB (0%)
Title : Spanish-FORCED-PGS
Language : Spanish
Default : No
Forced : No

Text #10
ID : 16
Format : PGS
Muxing mode : zlib
Codec ID : S_HDMV/PGS
Codec ID/Info : Picture based subtitle format used on BDs/HD-DVDs
Duration : 1 h 36 min
Bit rate : 563 b/s
Count of elements : 48
Stream size : 396 KiB (0%)
Title : French-FORCED-PGS
Language : French
Default : No
Forced : No

Text #11
ID : 17
Format : PGS
Muxing mode : zlib
Codec ID : S_HDMV/PGS
Codec ID/Info : Picture based subtitle format used on BDs/HD-DVDs
Duration : 1 h 36 min
Bit rate : 563 b/s
Count of elements : 48
Stream size : 396 KiB (0%)
Title : French-FORCED-PGS
Language : French
Default : No
Forced : No

Menu
00:00:00.000 : en:Chapter 01
00:05:19.444 : en:Chapter 02
00:12:05.766 : en:Chapter 03
00:18:52.673 : en:Chapter 04
00:24:11.658 : en:Chapter 05
00:28:46.349 : en:Chapter 06
00:34:48.252 : en:Chapter 07
00:40:10.157 : en:Chapter 08
00:47:11.078 : en:Chapter 09
00:52:56.298 : en:Chapter 10
00:58:04.481 : en:Chapter 11
01:04:35.913 : en:Chapter 12
01:09:55.649 : en:Chapter 13
01:15:40.285 : en:Chapter 14
01:21:11.116 : en:Chapter 15
01:26:26.598 : en:Chapter 16





The.Angry.Birds.Movie.2.2019.1080p.BluRay.REMUX.AVC.DTS-HD.MA.5.1-FGT.torrent (94 KB, 下載次數: 42)

提示:如迅雷下載提示"任務出錯"、"因版權無法下載",請更換【迅雷5】,提取碼: ai7u
古哥影視論壇www.tdtiyl.tw 高清電影,藍光電影,最新電影,電影天堂,影視帝國,人人影視
提示:如迅雷下載提示"任務出錯"、"因版權無法下載",請更換【迅雷5】,提取碼: ai7u
2#
發表于 2019-11-6 00:20:36 | 只看該作者
多謝分享,下載看看
古哥影視論壇www.tdtiyl.tw 高清電影,藍光電影,最新電影,電影天堂,影視帝國,人人影視
回復 支持 反對

使用道具 舉報

3#
發表于 2019-11-6 08:02:45 | 只看該作者

這個帖子不回對不起自己!我想我是一天也不能離開古哥影視
古哥影視論壇www.tdtiyl.tw 高清電影,藍光電影,最新電影,電影天堂,影視帝國,人人影視
回復 支持 反對

使用道具 舉報

4#
發表于 2019-11-6 08:27:36 | 只看該作者
樓主發貼辛苦了,謝謝樓主分享!我覺得古哥影視的電影是最值得收藏的!
古哥影視論壇www.tdtiyl.tw 高清電影,藍光電影,最新電影,電影天堂,影視帝國,人人影視
回復 支持 反對

使用道具 舉報

5#
發表于 2019-11-6 09:03:40 | 只看該作者
樓主發貼辛苦了,謝謝樓主分享!我覺得古哥影視的電影是最值得收藏的!
古哥影視論壇www.tdtiyl.tw 高清電影,藍光電影,最新電影,電影天堂,影視帝國,人人影視
回復 支持 反對

使用道具 舉報

6#
發表于 2019-11-6 09:38:45 | 只看該作者
看看小鳥是如何復仇的。
古哥影視論壇www.tdtiyl.tw 高清電影,藍光電影,最新電影,電影天堂,影視帝國,人人影視
回復 支持 反對

使用道具 舉報

7#
發表于 2019-11-6 09:50:31 | 只看該作者
強帖,強帖,強帖  重要的事情說三遍!
古哥影視論壇www.tdtiyl.tw 高清電影,藍光電影,最新電影,電影天堂,影視帝國,人人影視
回復 支持 反對

使用道具 舉報

8#
發表于 2019-11-6 10:31:41 | 只看該作者
樓主發貼辛苦了,謝謝樓主分享!我覺得古哥影視的電影是最值得收藏的!
古哥影視論壇www.tdtiyl.tw 高清電影,藍光電影,最新電影,電影天堂,影視帝國,人人影視
回復 支持 反對

使用道具 舉報

9#
發表于 2019-11-6 10:34:01 | 只看該作者
樓主發貼辛苦了,謝謝樓主分享!我覺得古哥影視的電影是最值得收藏的!
古哥影視論壇www.tdtiyl.tw 高清電影,藍光電影,最新電影,電影天堂,影視帝國,人人影視
回復 支持 反對

使用道具 舉報

10#
發表于 2019-11-6 22:09:55 | 只看該作者
樓主發貼辛苦了,謝謝樓主分享!我覺得古哥影視的電影是最值得收藏的!
古哥影視論壇www.tdtiyl.tw 高清電影,藍光電影,最新電影,電影天堂,影視帝國,人人影視
回復 支持 反對

使用道具 舉報

11#
發表于 2019-11-7 14:57:12 | 只看該作者
看看怎么樣的>.
古哥影視論壇www.tdtiyl.tw 高清電影,藍光電影,最新電影,電影天堂,影視帝國,人人影視
回復 支持 反對

使用道具 舉報

12#
發表于 2019-11-7 19:54:29 | 只看該作者
憤怒的小鳥
想到了一款小游戲
古哥影視論壇www.tdtiyl.tw 高清電影,藍光電影,最新電影,電影天堂,影視帝國,人人影視
回復 支持 反對

使用道具 舉報

13#
發表于 2019-11-8 11:11:31 | 只看該作者
非常感謝非常感謝樓主分享
古哥影視論壇www.tdtiyl.tw 高清電影,藍光電影,最新電影,電影天堂,影視帝國,人人影視
回復 支持 反對

使用道具 舉報

14#
發表于 2019-11-8 12:51:58 | 只看該作者
《夜不語詭秘檔案至405》_[完本小說][txt精校版]
古哥影視論壇www.tdtiyl.tw 高清電影,藍光電影,最新電影,電影天堂,影視帝國,人人影視
回復 支持 反對

使用道具 舉報

15#
發表于 2019-11-8 15:45:46 | 只看該作者
樓主發貼辛苦了,謝謝樓主分享!我覺得古哥影視的電影是最值得收藏的!
古哥影視論壇www.tdtiyl.tw 高清電影,藍光電影,最新電影,電影天堂,影視帝國,人人影視
回復 支持 反對

使用道具 舉報

16#
發表于 6 天前 | 只看該作者
這個帖子不回對不起自己!我想我是一天也不能離開古哥影視





......
古哥影視論壇www.tdtiyl.tw 高清電影,藍光電影,最新電影,電影天堂,影視帝國,人人影視
回復 支持 反對

使用道具 舉報

17#
發表于 6 天前 | 只看該作者
這個帖子不回對不起自己!我想我是一天也不能離開古哥影視





......
古哥影視論壇www.tdtiyl.tw 高清電影,藍光電影,最新電影,電影天堂,影視帝國,人人影視
回復 支持 反對

使用道具 舉報

18#
發表于 6 天前 | 只看該作者
樓主發貼辛苦了,謝謝樓主分享!我覺得古哥影視的電影是最值得收藏的!





......
古哥影視論壇www.tdtiyl.tw 高清電影,藍光電影,最新電影,電影天堂,影視帝國,人人影視
回復 支持 反對

使用道具 舉報

19#
發表于 6 天前 | 只看該作者
這東西我收了!謝謝樓主!古哥影視真好!一定要堅持下去,支持不住時請讓大家捐助





......
古哥影視論壇www.tdtiyl.tw 高清電影,藍光電影,最新電影,電影天堂,影視帝國,人人影視
回復 支持 反對

使用道具 舉報

20#
發表于 6 天前 | 只看該作者
我看不錯噢 謝謝樓主!古哥影視越來越好,高清電影還得上這來下載





......
古哥影視論壇www.tdtiyl.tw 高清電影,藍光電影,最新電影,電影天堂,影視帝國,人人影視
回復 支持 反對

使用道具 舉報

懶得打字嘛,點擊右側快捷回復->
您需要登錄后才可以回帖 登錄 | 注冊(分享大片)

本版積分規則

影視帝國免責聲明
本站提供網上學習交流和自由討論使用,所有資源均來自互聯網公開渠道,發布和個人言論并不代表本站立場,本站不負任何責任.
如發現有侵權行為,請與我們聯系.我們將立刻從網站上刪除,并向所有持版權者致最深歉意.
影視帝國論壇已經安全運行

QQ|小黑屋|手機版|Archiver|古哥論壇

GMT+8, 2019-11-21 09:00 , Processed in 0.224995 second(s), 18 queries , Gzip On.

Powered by Discuz! X3.4

© 2001-2017 Comsenz Inc.

快速回復 返回頂部 返回列表
6肖中特期期准最新