古哥論壇

 找回密碼
 注冊(分享大片)
查看: 1872|回復: 69
打印 上一主題 下一主題

[原始恐懼]Primal.2019.1080p.BluRay.REMUX.AVC.DTS-HD.MA.TrueHD.5.1-FGT 22.78GB

[復制鏈接]
跳轉到指定樓層
1#
發表于 2019-12-29 23:16:27 | 只看該作者 回帖獎勵 |倒序瀏覽 |閱讀模式
4K天堂


◎譯  名 原始恐懼
◎片  名 Primal
◎年  代 2019
◎產  地 美國
◎類  別 動作
◎語  言 英語
◎上映日期 2019-11-08(美國)
◎IMDb評分 6.1/10 from 27 users
◎IMDb鏈接 https://www.imdb.com/title/tt7394816
◎豆瓣評分 0/10 from 0 users
◎藍光高清   http://www.4ktt.com
◎導  演 尼克·鮑威爾 Nick Powell
◎編  劇 Richard Leder
◎主  演 尼古拉斯·凱奇 Nicolas Cage
      法米克·詹森 Famke Janssen
      凱文·杜蘭 Kevin Durand
      邁克爾·因佩里奧利 Michael Imperioli
      拉莫尼卡·加瑞特 LaMonica Garrett
      雷·埃爾南德斯 Rey Hernandez
      湯姆·沃克 Tom Walker
      布賴恩·泰斯特 Brian Tester
      John Lewis
      Sewell Whitney
      Braulio Castillo hijo
      Joseph Oliveira
      Drake Shannon
      Sebastian Vázquez
      Jaime Irizarry

◎簡  介
  一位大型動物禁獵區的管理人Frank Walsh,他押運一艘載滿了來自亞馬遜、奇異又致命的大型動物的希臘運輸船,其中包括一只極其罕見的白色美洲虎。不過致命的動物并不是船上最令人恐懼的生物,一支計劃將一位政治暗殺殺手Richard Loffler偷渡去美國的小隊也在船上。Loffler隨后甩掉看管他的美國警官并放出了牢籠里的猛獸,使整艘船陷入極大的惶恐于混亂之中。Frank必須找出既不傷害動物也能保全船員安穩無恙的方法,同時還要提防瘋狂的殺手。

Video
ID : 1
Format : AVC
Format/Info : Advanced Video Codec
Format profile : [email protected]
Format settings : CABAC / 4 Ref Frames
Format settings, CABAC : Yes
Format settings, Reference frames : 4 frames
Codec ID : V_MPEG4/ISO/AVC
Duration : 1 h 36 min
Bit rate mode : Variable
Bit rate : 25.9 Mb/s
Maximum bit rate : 32.0 Mb/s
Width : 1 920 pixels
Height : 1 080 pixels
Display aspect ratio : 16:9
Frame rate mode : Constant
Frame rate : 23.976 (24000/1001) FPS
Color space : YUV
Chroma subsampling : 4:2:0
Bit depth : 8 bits
Scan type : Progressive
Bits/(Pixel*Frame) : 0.520
Stream size : 17.5 GiB (77%)
Title : Primal.2019.1080p.BluRay.REMUX.AVC.DTS-HD.MA.TrueHD.5.1-FGT
Language : English
Default : No
Forced : No

Audio #1
ID : 2
Format : MLP FBA
Format/Info : Meridian Lossless Packing FBA
Commercial name : Dolby TrueHD
Codec ID : A_TRUEHD
Duration : 1 h 36 min
Bit rate mode : Variable
Bit rate : 3 224 kb/s
Maximum bit rate : 4 530 kb/s
Channel(s) : 6 channels
Channel layout : L R C LFE Ls Rs
Sampling rate : 48.0 kHz
Frame rate : 1 200.000 FPS (40 SPF)
Compression mode : Lossless
Stream size : 2.18 GiB (10%)
Title : Primal.2019.1080p.BluRay.REMUX.AVC.DTS-HD.MA.TrueHD.5.1-FGT
Language : English
Default : Yes
Forced : No

Audio #2
ID : 3
Format : DTS XLL
Format/Info : Digital Theater Systems
Commercial name : DTS-HD Master Audio
Codec ID : A_DTS
Duration : 1 h 36 min
Bit rate mode : Variable
Bit rate : 3 824 kb/s
Channel(s) : 6 channels
Channel layout : C L R Ls Rs LFE
Sampling rate : 48.0 kHz
Frame rate : 93.750 FPS (512 SPF)
Bit depth : 24 bits
Compression mode : Lossless
Stream size : 2.59 GiB (11%)
Title : Primal.2019.1080p.BluRay.REMUX.AVC.DTS-HD.MA.TrueHD.5.1-FGT
Language : English
Default : No
Forced : No

Audio #3
ID : 4
Format : AC-3
Format/Info : Audio Coding 3
Commercial name : Dolby Digital
Codec ID : A_AC3
Duration : 1 h 36 min
Bit rate mode : Constant
Bit rate : 640 kb/s
Channel(s) : 6 channels
Channel layout : L R C LFE Ls Rs
Sampling rate : 48.0 kHz
Frame rate : 31.250 FPS (1536 SPF)
Bit depth : 16 bits
Compression mode : Lossy
Stream size : 443 MiB (2%)
Title : Primal.2019.1080p.BluRay.REMUX.AVC.DTS-HD.MA.TrueHD.5.1-FGT
Language : English
Service kind : Complete Main
Default : No
Forced : No

Text #1
ID : 5
Format : UTF-8
Codec ID : S_TEXT/UTF8
Codec ID/Info : UTF-8 Plain Text
Duration : 1 h 33 min
Bit rate : 48 b/s
Count of elements : 997
Stream size : 33.4 KiB (0%)
Title : English-SRT
Language : English
Default : Yes
Forced : No

Text #2
ID : 6
Format : PGS
Muxing mode : zlib
Codec ID : S_HDMV/PGS
Codec ID/Info : Picture based subtitle format used on BDs/HD-DVDs
Duration : 1 h 33 min
Bit rate : 28.2 kb/s
Count of elements : 1992
Stream size : 19.0 MiB (0%)
Title : English-PGS
Language : English
Default : No
Forced : No

Text #3
ID : 7
Format : PGS
Muxing mode : zlib
Codec ID : S_HDMV/PGS
Codec ID/Info : Picture based subtitle format used on BDs/HD-DVDs
Duration : 1 h 36 min
Bit rate : 31.4 kb/s
Count of elements : 2352
Stream size : 21.7 MiB (0%)
Title : English-SDH-PGS
Language : English
Default : No
Forced : No

Text #4
ID : 8
Format : PGS
Muxing mode : zlib
Codec ID : S_HDMV/PGS
Codec ID/Info : Picture based subtitle format used on BDs/HD-DVDs
Duration : 1 h 31 min
Bit rate : 26.5 kb/s
Count of elements : 1976
Stream size : 17.3 MiB (0%)
Title : Spanish-PGS
Language : Spanish
Default : No
Forced : No

Menu
00:00:00.000 : en:Chapter 01
00:10:15.114 : en:Chapter 02
00:18:51.463 : en:Chapter 03
00:24:53.492 : en:Chapter 04
00:27:28.313 : en:Chapter 05
00:33:18.830 : en:Chapter 06
00:42:31.048 : en:Chapter 07
00:50:53.550 : en:Chapter 08
01:00:48.186 : en:Chapter 09
01:06:42.498 : en:Chapter 10
01:15:28.190 : en:Chapter 11
01:32:29.710 : en:Chapter 12
01:36:49.804 : en:Chapter 13




游客,如果您要查看本帖隱藏內容請回復,如果您想無廣告、免回復、下載附件免影視幣請開通VIP:VIP傳送門



古哥影視論壇www.tdtiyl.tw 高清電影,藍光電影,最新電影,電影天堂,影視帝國,人人影視
推薦
發表于 2019-12-30 17:14:44 | 只看該作者
樓主發貼辛苦了,謝謝樓主分享!我覺得古哥影視的電影是最值得收藏的!
古哥影視論壇www.tdtiyl.tw 高清電影,藍光電影,最新電影,電影天堂,影視帝國,人人影視
回復 支持 1 反對 0

使用道具 舉報

推薦
發表于 2019-12-30 17:35:21 | 只看該作者

這個帖子不回對不起自己!我想我是一天也不能離開古哥影視
古哥影視論壇www.tdtiyl.tw 高清電影,藍光電影,最新電影,電影天堂,影視帝國,人人影視
回復 支持 1 反對 0

使用道具 舉報

推薦
發表于 2019-12-30 18:00:48 | 只看該作者
樓主發貼辛苦了,謝謝樓主分享!我覺得古哥影視的電影是最值得收藏的!
古哥影視論壇www.tdtiyl.tw 高清電影,藍光電影,最新電影,電影天堂,影視帝國,人人影視
回復 支持 1 反對 0

使用道具 舉報

推薦
發表于 2019-12-30 19:46:59 | 只看該作者
怮 女 資 原【 w w w . u c 5 . m e 】籮 利 資 原【 w w w . u c 5  . x y z
古哥影視論壇www.tdtiyl.tw 高清電影,藍光電影,最新電影,電影天堂,影視帝國,人人影視
回復 支持 1 反對 0

使用道具 舉報

2#
發表于 2019-12-29 23:39:42 | 只看該作者
樓主發貼辛苦了,謝謝樓主分享!我覺得古哥影視的電影是最值得收藏的!
古哥影視論壇www.tdtiyl.tw 高清電影,藍光電影,最新電影,電影天堂,影視帝國,人人影視
回復 支持 反對

使用道具 舉報

3#
發表于 2019-12-29 23:40:25 | 只看該作者
樓主發貼辛苦了,謝謝樓主分享!我覺得古哥影視的電影是最值得收藏的!





......
古哥影視論壇www.tdtiyl.tw 高清電影,藍光電影,最新電影,電影天堂,影視帝國,人人影視
回復 支持 反對

使用道具 舉報

4#
發表于 2019-12-30 00:25:53 | 只看該作者
感謝樓主的分享啊!
古哥影視論壇www.tdtiyl.tw 高清電影,藍光電影,最新電影,電影天堂,影視帝國,人人影視
回復 支持 反對

使用道具 舉報

5#
發表于 2019-12-30 03:41:06 | 只看該作者
very nice,thanks for share
古哥影視論壇www.tdtiyl.tw 高清電影,藍光電影,最新電影,電影天堂,影視帝國,人人影視
回復 支持 反對

使用道具 舉報

7#
發表于 2019-12-30 08:23:59 | 只看該作者

樓主太厲害了!樓主,I*老*虎*U!古哥影視絕對是電影愛好的天堂!
古哥影視論壇www.tdtiyl.tw 高清電影,藍光電影,最新電影,電影天堂,影視帝國,人人影視
回復 支持 反對

使用道具 舉報

8#
發表于 2019-12-30 08:24:53 | 只看該作者
小隊也在船上。Loffler隨后甩掉看管他的美國警官并放出了牢籠里的猛獸,使整艘船陷入極大的惶恐于混亂之中。Frank必須找出既不傷害動物
古哥影視論壇www.tdtiyl.tw 高清電影,藍光電影,最新電影,電影天堂,影視帝國,人人影視
回復 支持 反對

使用道具 舉報

9#
發表于 2019-12-30 08:28:22 | 只看該作者
樓主發貼辛苦了,謝謝樓主分享!我覺得古哥影視的電影是最值得收藏的!
古哥影視論壇www.tdtiyl.tw 高清電影,藍光電影,最新電影,電影天堂,影視帝國,人人影視
回復 支持 反對

使用道具 舉報

10#
發表于 2019-12-30 09:11:24 | 只看該作者
感謝樓主分享
古哥影視論壇www.tdtiyl.tw 高清電影,藍光電影,最新電影,電影天堂,影視帝國,人人影視
回復 支持 反對

使用道具 舉報

11#
發表于 2019-12-30 09:12:01 | 只看該作者
樓主發貼辛苦了,謝謝樓主分享!我覺得古哥影視的電影是最值得收藏的!
古哥影視論壇www.tdtiyl.tw 高清電影,藍光電影,最新電影,電影天堂,影視帝國,人人影視
回復 支持 反對

使用道具 舉報

12#
發表于 2019-12-30 09:17:15 | 只看該作者
感謝樓主發片~~~~~~~~~~
古哥影視論壇www.tdtiyl.tw 高清電影,藍光電影,最新電影,電影天堂,影視帝國,人人影視
回復 支持 反對

使用道具 舉報

13#
發表于 2019-12-30 10:45:35 | 只看該作者
樓主發貼辛苦了,謝謝樓主分享!我覺得古哥影視的電影是最值得收藏的!
古哥影視論壇www.tdtiyl.tw 高清電影,藍光電影,最新電影,電影天堂,影視帝國,人人影視
回復 支持 反對

使用道具 舉報

14#
發表于 2019-12-30 11:40:56 | 只看該作者
多謝分享,下載了
古哥影視論壇www.tdtiyl.tw 高清電影,藍光電影,最新電影,電影天堂,影視帝國,人人影視
回復 支持 反對

使用道具 舉報

15#
發表于 2019-12-30 11:52:28 | 只看該作者
樓主發貼辛苦了,謝謝樓主分享!我覺得古哥影視的電影是最值得收藏的!
古哥影視論壇www.tdtiyl.tw 高清電影,藍光電影,最新電影,電影天堂,影視帝國,人人影視
回復 支持 反對

使用道具 舉報

16#
發表于 2019-12-30 13:00:32 | 只看該作者
謝謝樓主分享
古哥影視論壇www.tdtiyl.tw 高清電影,藍光電影,最新電影,電影天堂,影視帝國,人人影視
回復 支持 反對

使用道具 舉報

17#
發表于 2019-12-30 13:35:02 | 只看該作者

其實我一直覺得樓主的品味不錯!呵呵!古哥影視真的太棒了,多年的高清電影都在這下載的!
古哥影視論壇www.tdtiyl.tw 高清電影,藍光電影,最新電影,電影天堂,影視帝國,人人影視
回復 支持 反對

使用道具 舉報

18#
發表于 2019-12-30 13:35:38 | 只看該作者
兆棠化工 發表于 2019-12-30 08:24
小隊也在船上。Loffler隨后甩掉看管他的美國警官并放出了牢籠里的猛獸,使整艘船陷入極大的惶恐于混亂之中 ...

這樣回復當心被扣分啊。
古哥影視論壇www.tdtiyl.tw 高清電影,藍光電影,最新電影,電影天堂,影視帝國,人人影視
回復 支持 反對

使用道具 舉報

19#
發表于 2019-12-30 14:10:27 | 只看該作者
下來看看,謝謝分享。。。。。。。。。。
古哥影視論壇www.tdtiyl.tw 高清電影,藍光電影,最新電影,電影天堂,影視帝國,人人影視
回復 支持 反對

使用道具 舉報

20#
發表于 2019-12-30 14:18:16 | 只看該作者
感謝樓主分享!永遠支持古哥影視
古哥影視論壇www.tdtiyl.tw 高清電影,藍光電影,最新電影,電影天堂,影視帝國,人人影視
回復 支持 反對

使用道具 舉報

懶得打字嘛,點擊右側快捷回復->
您需要登錄后才可以回帖 登錄 | 注冊(分享大片)

本版積分規則

影視帝國免責聲明
本站提供網上學習交流和自由討論使用,所有資源均來自互聯網公開渠道,發布和個人言論并不代表本站立場,本站不負任何責任.
如發現有侵權行為,請與我們聯系.我們將立刻從網站上刪除,并向所有持版權者致最深歉意.
影視帝國論壇已經安全運行

QQ|小黑屋|手機版|Archiver|古哥論壇

GMT+8, 2020-1-30 01:38 , Processed in 0.217585 second(s), 20 queries , Gzip On.

Powered by Discuz! X3.4

© 2001-2017 Comsenz Inc.

快速回復 返回頂部 返回列表
6肖中特期期准最新