古哥論壇

 找回密碼
 注冊(分享大片)
查看: 724|回復: 5
打印 上一主題 下一主題

[下一個就是你]Urban.Legend.1998.1080p.BluRay.REMUX.AVC.TrueHD.5.1-FGT 21.57GB

[復制鏈接]
跳轉到指定樓層
1#
發表于 2020-1-8 23:01:11 | 只看該作者 回帖獎勵 |倒序瀏覽 |閱讀模式
4K天堂


◎譯  名 下一個就是你
◎片  名 Urban Legend
◎年  代 1998
◎產  地 美國 / 法國
◎類  別 懸疑 / 驚悚 / 恐怖
◎語  言 英語
◎上映日期 1998-09-25
◎IMDb評分 5.6/10 from 56661 users
◎IMDb鏈接 https://www.imdb.com/title/tt0146336
◎豆瓣評分 6.3/10 from 4007 users
◎藍光高清   http://www.4ktt.com
◎片  長 99 分鐘
◎導  演 杰米 布蘭克斯 (Jamie Blanks)
◎編  劇 西爾維奧 霍塔 (Silvio Horta)
◎主  演 Brad Dourif
      Rebecca Gayheart
      Jared Leto
      Alicia Witt
      Joshua Jackson
      Robert Englund

◎簡  介
  美國新英格蘭地區的普德頓大學流傳著一個名為“斯坦利堂大屠殺”的恐怖傳奇,話說25年前,一名異常心理學教授在斯坦利堂大開殺戒隨后自殺,這起血腥慘案至今在學生中間廣為流傳。適值此時,校園內發生一連串的兇殺案。校報記者保羅·加德納(杰拉德·萊托 Jared Leto 飾)堅信兇手就隱藏在校園內,他的朋友之一娜塔莎·西蒙(艾麗西亞·維特Alicia Witt 飾)更將此事與斯坦禮堂大屠殺聯系起來。他們二人攜手調查此事,在這一過程中,他們的朋友借二連三遇難。娜塔莎吃驚地意識到,她和保羅已經進入兇手設下的狩獵陷阱之中。
  越逼近真相,危險便離他們越近……
Video
ID : 1
Format : AVC
Format/Info : Advanced Video Codec
Format profile : [email protected]
Format settings : CABAC / 2 Ref Frames
Format settings, CABAC : Yes
Format settings, Reference frames : 2 frames
Codec ID : V_MPEG4/ISO/AVC
Duration : 1 h 39 min
Bit rate mode : Variable
Bit rate : 23.9 Mb/s
Width : 1 920 pixels
Height : 1 080 pixels
Display aspect ratio : 16:9
Frame rate mode : Constant
Frame rate : 23.976 (24000/1001) FPS
Color space : YUV
Chroma subsampling : 4:2:0
Bit depth : 8 bits
Scan type : Progressive
Bits/(Pixel*Frame) : 0.482
Stream size : 16.7 GiB (77%)
Title : Urban.Legend.1998.1080p.BluRay.REMUX.AVC.TrueHD.5.1-FGT
Language : English
Default : No
Forced : No

Audio #1
ID : 2
Format : MLP FBA
Format/Info : Meridian Lossless Packing FBA
Commercial name : Dolby TrueHD
Codec ID : A_TRUEHD
Duration : 1 h 39 min
Bit rate mode : Variable
Bit rate : 1 490 kb/s
Maximum bit rate : 2 970 kb/s
Channel(s) : 6 channels
Channel layout : L R C LFE Ls Rs
Sampling rate : 48.0 kHz
Frame rate : 1 200.000 FPS (40 SPF)
Compression mode : Lossless
Stream size : 1.04 GiB (5%)
Title : Urban.Legend.1998.1080p.BluRay.REMUX.AVC.TrueHD.5.1-FGT
Language : English
Default : Yes
Forced : No

Audio #2
ID : 3
Format : AC-3
Format/Info : Audio Coding 3
Commercial name : Dolby Digital
Codec ID : A_AC3
Duration : 1 h 39 min
Bit rate mode : Constant
Bit rate : 640 kb/s
Channel(s) : 6 channels
Channel layout : L R C LFE Ls Rs
Sampling rate : 48.0 kHz
Frame rate : 31.250 FPS (1536 SPF)
Bit depth : 16 bits
Compression mode : Lossy
Stream size : 456 MiB (2%)
Title : Urban.Legend.1998.1080p.BluRay.REMUX.AVC.TrueHD.5.1-FGT
Language : English
Service kind : Complete Main
Default : No
Forced : No

Audio #3
ID : 4
Format : MLP FBA
Format/Info : Meridian Lossless Packing FBA
Commercial name : Dolby TrueHD
Codec ID : A_TRUEHD
Duration : 1 h 39 min
Bit rate mode : Variable
Bit rate : 1 644 kb/s
Maximum bit rate : 2 868 kb/s
Channel(s) : 6 channels
Channel layout : L R C LFE Ls Rs
Sampling rate : 48.0 kHz
Frame rate : 1 200.000 FPS (40 SPF)
Compression mode : Lossless
Stream size : 1.14 GiB (5%)
Title : Urban.Legend.1998.1080p.BluRay.REMUX.AVC.TrueHD.5.1-FGT
Language : German
Default : No
Forced : No

Audio #4
ID : 5
Format : AC-3
Format/Info : Audio Coding 3
Commercial name : Dolby Digital
Codec ID : A_AC3
Duration : 1 h 39 min
Bit rate mode : Constant
Bit rate : 640 kb/s
Channel(s) : 6 channels
Channel layout : L R C LFE Ls Rs
Sampling rate : 48.0 kHz
Frame rate : 31.250 FPS (1536 SPF)
Bit depth : 16 bits
Compression mode : Lossy
Stream size : 456 MiB (2%)
Title : Urban.Legend.1998.1080p.BluRay.REMUX.AVC.TrueHD.5.1-FGT
Language : German
Service kind : Complete Main
Default : No
Forced : No

Audio #5
ID : 6
Format : MLP FBA
Format/Info : Meridian Lossless Packing FBA
Commercial name : Dolby TrueHD
Codec ID : A_TRUEHD
Duration : 1 h 39 min
Bit rate mode : Variable
Bit rate : 1 555 kb/s
Maximum bit rate : 3 069 kb/s
Channel(s) : 6 channels
Channel layout : L R C LFE Ls Rs
Sampling rate : 48.0 kHz
Frame rate : 1 200.000 FPS (40 SPF)
Compression mode : Lossless
Stream size : 1.08 GiB (5%)
Title : Urban.Legend.1998.1080p.BluRay.REMUX.AVC.TrueHD.5.1-FGT
Language : Spanish
Default : No
Forced : No

Audio #6
ID : 7
Format : AC-3
Format/Info : Audio Coding 3
Commercial name : Dolby Digital
Codec ID : A_AC3
Duration : 1 h 39 min
Bit rate mode : Constant
Bit rate : 640 kb/s
Channel(s) : 6 channels
Channel layout : L R C LFE Ls Rs
Sampling rate : 48.0 kHz
Frame rate : 31.250 FPS (1536 SPF)
Bit depth : 16 bits
Compression mode : Lossy
Stream size : 456 MiB (2%)
Title : Urban.Legend.1998.1080p.BluRay.REMUX.AVC.TrueHD.5.1-FGT
Language : Spanish
Service kind : Complete Main
Default : No
Forced : No

Audio #7
ID : 8
Format : AC-3
Format/Info : Audio Coding 3
Commercial name : Dolby Digital
Codec ID : A_AC3
Duration : 1 h 39 min
Bit rate mode : Constant
Bit rate : 192 kb/s
Channel(s) : 2 channels
Channel layout : L R
Sampling rate : 48.0 kHz
Frame rate : 31.250 FPS (1536 SPF)
Bit depth : 16 bits
Compression mode : Lossy
Stream size : 137 MiB (1%)
Title : Urban.Legend.1998.1080p.BluRay.REMUX.AVC.TrueHD.5.1-FGT
Language : English
Service kind : Complete Main
Default : No
Forced : No

Text #1
ID : 9
Format : PGS
Muxing mode : zlib
Codec ID : S_HDMV/PGS
Codec ID/Info : Picture based subtitle format used on BDs/HD-DVDs
Duration : 1 h 34 min
Bit rate : 28.1 kb/s
Count of elements : 1830
Stream size : 19.0 MiB (0%)
Title : English-PGS
Language : English
Default : Yes
Forced : No

Text #2
ID : 10
Format : PGS
Muxing mode : zlib
Codec ID : S_HDMV/PGS
Codec ID/Info : Picture based subtitle format used on BDs/HD-DVDs
Duration : 1 h 34 min
Bit rate : 24.3 kb/s
Count of elements : 1386
Stream size : 16.4 MiB (0%)
Title : German-PGS
Language : German
Default : No
Forced : No

Text #3
ID : 11
Format : PGS
Muxing mode : zlib
Codec ID : S_HDMV/PGS
Codec ID/Info : Picture based subtitle format used on BDs/HD-DVDs
Duration : 56 min 1 s
Bit rate : 480 b/s
Count of elements : 18
Stream size : 197 KiB (0%)
Title : German-FORCED-PGS
Language : German
Default : No
Forced : No

Text #4
ID : 12
Format : PGS
Muxing mode : zlib
Codec ID : S_HDMV/PGS
Codec ID/Info : Picture based subtitle format used on BDs/HD-DVDs
Duration : 1 h 34 min
Bit rate : 21.1 kb/s
Count of elements : 1334
Stream size : 14.2 MiB (0%)
Title : Spanish-PGS
Language : Spanish
Default : No
Forced : No

Text #5
ID : 13
Format : PGS
Muxing mode : zlib
Codec ID : S_HDMV/PGS
Codec ID/Info : Picture based subtitle format used on BDs/HD-DVDs
Duration : 1 h 22 min
Bit rate : 275 b/s
Count of elements : 18
Stream size : 167 KiB (0%)
Title : Spanish-FORCED-PGS
Language : Spanish
Default : No
Forced : No

Text #6
ID : 14
Format : PGS
Muxing mode : zlib
Codec ID : S_HDMV/PGS
Codec ID/Info : Picture based subtitle format used on BDs/HD-DVDs
Duration : 1 h 35 min
Bit rate : 22.3 kb/s
Count of elements : 1348
Stream size : 15.2 MiB (0%)
Title : Portuguese-PGS
Language : Portuguese
Default : No
Forced : No

Text #7
ID : 15
Format : PGS
Muxing mode : zlib
Codec ID : S_HDMV/PGS
Codec ID/Info : Picture based subtitle format used on BDs/HD-DVDs
Duration : 1 h 34 min
Bit rate : 24.7 kb/s
Count of elements : 1468
Stream size : 16.7 MiB (0%)
Title : Turkish-PGS
Language : Turkish
Default : No
Forced : No

Menu
00:00:00.000 : en:Chapter 01
00:09:32.071 : en:Chapter 02
00:15:11.911 : en:Chapter 03
00:20:07.789 : en:Chapter 04
00:25:25.815 : en:Chapter 05
00:35:10.691 : en:Chapter 06
00:37:51.811 : en:Chapter 07
00:45:32.062 : en:Chapter 08
00:50:17.264 : en:Chapter 09
00:56:40.355 : en:Chapter 10
00:59:35.947 : en:Chapter 11
01:09:00.094 : en:Chapter 12
01:15:18.430 : en:Chapter 13
01:19:33.310 : en:Chapter 14
01:27:00.048 : en:Chapter 15
01:31:04.667 : en:Chapter 16




Urban.Legend.1998.1080p.BluRay.REMUX.AVC.TrueHD.5.1-FGT.torrent (54.48 KB, 下載次數: 2)

古哥影視論壇www.tdtiyl.tw 高清電影,藍光電影,最新電影,電影天堂,影視帝國,人人影視
2#
發表于 2020-1-8 23:13:15 | 只看該作者
這東西我收了!謝謝樓主!古哥影視真好!一定要堅持下去,支持不住時請讓大家捐助





......
古哥影視論壇www.tdtiyl.tw 高清電影,藍光電影,最新電影,電影天堂,影視帝國,人人影視
回復 支持 反對

使用道具 舉報

3#
發表于 2020-1-8 23:21:03 | 只看該作者
感謝分享,下載咯
古哥影視論壇www.tdtiyl.tw 高清電影,藍光電影,最新電影,電影天堂,影視帝國,人人影視
回復 支持 反對

使用道具 舉報

4#
發表于 2020-1-9 00:09:47 | 只看該作者
感謝樓主的分享啊!
古哥影視論壇www.tdtiyl.tw 高清電影,藍光電影,最新電影,電影天堂,影視帝國,人人影視
回復 支持 反對

使用道具 舉報

5#
發表于 2020-1-10 21:45:16 | 只看該作者
樓主發貼辛苦了,謝謝樓主分享!我覺得古哥影視的電影是最值得收藏的!
古哥影視論壇www.tdtiyl.tw 高清電影,藍光電影,最新電影,電影天堂,影視帝國,人人影視
回復 支持 反對

使用道具 舉報

6#
發表于 2020-1-11 07:44:07 | 只看該作者
樓主發貼辛苦了,謝謝樓主分享!我覺得古哥影視的電影是最值得收藏的!
古哥影視論壇www.tdtiyl.tw 高清電影,藍光電影,最新電影,電影天堂,影視帝國,人人影視
回復 支持 反對

使用道具 舉報

懶得打字嘛,點擊右側快捷回復->
您需要登錄后才可以回帖 登錄 | 注冊(分享大片)

本版積分規則

影視帝國免責聲明
本站提供網上學習交流和自由討論使用,所有資源均來自互聯網公開渠道,發布和個人言論并不代表本站立場,本站不負任何責任.
如發現有侵權行為,請與我們聯系.我們將立刻從網站上刪除,并向所有持版權者致最深歉意.
影視帝國論壇已經安全運行

QQ|小黑屋|手機版|Archiver|古哥論壇

GMT+8, 2020-1-30 01:04 , Processed in 0.185131 second(s), 18 queries , Gzip On.

Powered by Discuz! X3.4

© 2001-2017 Comsenz Inc.

快速回復 返回頂部 返回列表
6肖中特期期准最新