古哥論壇

 找回密碼
 注冊(分享大片)
查看: 797|回復: 12
打印 上一主題 下一主題

[告密者]The.Informer.2019.1080p.BluRay.REMUX.AVC.DTS-HD.MA.5.1-FGT 30.14GB

[復制鏈接]
跳轉到指定樓層
1#
發表于 2020-1-8 23:09:45 | 只看該作者 回帖獎勵 |倒序瀏覽 |閱讀模式
4K天堂


◎譯  名 告密者 / Three Seconds / 三秒鐘 / 無間行動(臺)
◎片  名 The Informer
◎年  代 2019
◎產  地 英國
◎類  別 劇情 / 犯罪
◎語  言 英語
◎上映日期 2019-08-30(英國)
◎IMDb評分 6.6/10 from 1702 users
◎IMDb鏈接 https://www.imdb.com/title/tt1833116
◎豆瓣評分 0/10 from 0 users
◎藍光高清   http://www.4ktt.com
◎片  長 113分鐘
◎導  演 安德里亞·迪·斯戴法諾 Andrea Di Stefano
◎編  劇 馬特·庫克 Matt Cook / B?rge Hellstr?m / Anders Roslund
◎主  演 喬爾·金納曼 Joel Kinnaman
      裴淳華 Rosamund Pike
      克里夫·歐文 Clive Owen
      科曼 Common
      安娜·德·阿瑪斯 Ana de Armas
      薩姆·斯普盧爾 Sam Spruell
      露絲·布萊德利 Ruth Bradley
      馬丁·麥凱恩 Martin McCann
      納西爾·賈瑪 Nasir Jama
      豪爾赫·萊昂·馬丁內斯 Jorge Leon Martinez
      尤金·里皮斯基 Eugene Lipinski
      蒂利亞納·布克麗瓦 Dilyana Bouklieva
      斯科特·安德森 Scott Anderson
      羅伊·貝克 Roy Beck
      普雷斯頓·薩德萊 Preston Sadleir
      馬太烏茲·科西基維奇 Mateusz Kosciukiewicz
      米洛斯拉夫·哈尼斯澤斯基 Miroslaw Haniszewski
      Jenna Willis
      Gene Gabriel
      Aylam Orian
      Emanuel Coelho


◎標  簽 犯罪 | JoelKinnaman | 2019 | 美國 | 英國 | 電影 | 美國電影 | 裴淳華

◎簡  介

  影片根據Anders Roslund 和B?rge Hellstr?m所著的瑞典暢銷小說《Three Seconds》改編,講述男主角Pete Hoffman是一個革新的罪犯以及前“特殊行動”組織的士兵,為了從監獄里釋放出去和妻子女兒團聚,他參與了一項FBI組織的臥底任務,試圖深入波蘭毒販集團在紐約的一樁交易,在這個過程中,他將回到自己試圖擺脫束縛的Bale Hill監獄,而當一樁毒品交易出現差錯,他的臥底身份也遭到曝光的可能... 影片由意大利演員、導演安德里亞·迪·斯戴法諾執導,其它卡司還有克里夫·歐文和美國說唱藝術家Common,目前正在前期制作中。
Video
ID : 1
Format : AVC
Format/Info : Advanced Video Codec
Format profile : [email protected]
Format settings : CABAC / 3 Ref Frames
Format settings, CABAC : Yes
Format settings, Reference frames : 3 frames
Codec ID : V_MPEG4/ISO/AVC
Duration : 1 h 53 min
Bit rate mode : Variable
Bit rate : 33.9 Mb/s
Maximum bit rate : 37.0 Mb/s
Width : 1 920 pixels
Height : 1 080 pixels
Display aspect ratio : 16:9
Frame rate mode : Constant
Frame rate : 23.976 (24000/1001) FPS
Color space : YUV
Chroma subsampling : 4:2:0
Bit depth : 8 bits
Scan type : Progressive
Bits/(Pixel*Frame) : 0.682
Stream size : 26.9 GiB (89%)
Title : The.Informer.2019.1080p.BluRay.REMUX.AVC.DTS-HD.MA.5.1-FGT
Language : English
Default : No
Forced : No

Audio #1
ID : 2
Format : DTS XLL
Format/Info : Digital Theater Systems
Commercial name : DTS-HD Master Audio
Codec ID : A_DTS
Duration : 1 h 53 min
Bit rate mode : Variable
Bit rate : 3 742 kb/s
Channel(s) : 6 channels
Channel layout : C L R Ls Rs LFE
Sampling rate : 48.0 kHz
Frame rate : 93.750 FPS (512 SPF)
Bit depth : 24 bits
Compression mode : Lossless
Stream size : 2.97 GiB (10%)
Title : The.Informer.2019.1080p.BluRay.REMUX.AVC.DTS-HD.MA.5.1-FGT
Language : English
Default : Yes
Forced : No

Audio #2
ID : 3
Format : AC-3
Format/Info : Audio Coding 3
Commercial name : Dolby Digital
Codec ID : A_AC3
Duration : 1 h 53 min
Bit rate mode : Constant
Bit rate : 384 kb/s
Channel(s) : 6 channels
Channel layout : L R C LFE Ls Rs
Sampling rate : 48.0 kHz
Frame rate : 31.250 FPS (1536 SPF)
Bit depth : 16 bits
Compression mode : Lossy
Stream size : 312 MiB (1%)
Title : The.Informer.2019.1080p.BluRay.REMUX.AVC.DTS-HD.MA.5.1-FGT
Language : English
Service kind : Complete Main
Default : No
Forced : No

Text #1
ID : 4
Format : UTF-8
Codec ID : S_TEXT/UTF8
Codec ID/Info : UTF-8 Plain Text
Duration : 1 h 51 min
Bit rate : 45 b/s
Count of elements : 1015
Stream size : 36.7 KiB (0%)
Title : English-SRT
Language : English
Default : Yes
Forced : No

Text #2
ID : 5
Format : UTF-8
Codec ID : S_TEXT/UTF8
Codec ID/Info : UTF-8 Plain Text
Duration : 1 h 51 min
Bit rate : 49 b/s
Count of elements : 1183
Stream size : 40.6 KiB (0%)
Title : English-SDH-SRT
Language : English
Default : No
Forced : No

Text #3
ID : 6
Format : PGS
Muxing mode : zlib
Codec ID : S_HDMV/PGS
Codec ID/Info : Picture based subtitle format used on BDs/HD-DVDs
Duration : 1 h 51 min
Bit rate : 31.3 kb/s
Count of elements : 2366
Stream size : 24.9 MiB (0%)
Title : English-PGS
Language : English
Default : No
Forced : No

Menu
00:00:00.000 : en:Chapter 01
00:08:34.096 : en:Chapter 02
00:17:20.205 : en:Chapter 03
00:25:02.876 : en:Chapter 04
00:33:03.731 : en:Chapter 05
00:42:28.254 : en:Chapter 06
00:53:25.827 : en:Chapter 07
01:01:33.272 : en:Chapter 08
01:09:53.772 : en:Chapter 09
01:21:24.212 : en:Chapter 10
01:31:34.447 : en:Chapter 11
01:41:33.712 : en:Chapter 12




The.Informer.2019.1080p.BluRay.REMUX.AVC.DTS-HD.MA.5.1-FGT.torrent (75.91 KB, 下載次數: 15)


古哥影視論壇www.tdtiyl.tw 高清電影,藍光電影,最新電影,電影天堂,影視帝國,人人影視
2#
發表于 2020-1-8 23:13:04 | 只看該作者
我看不錯噢 謝謝樓主!古哥影視越來越好,高清電影還得上這來下載





......
古哥影視論壇www.tdtiyl.tw 高清電影,藍光電影,最新電影,電影天堂,影視帝國,人人影視
回復 支持 反對

使用道具 舉報

3#
發表于 2020-1-8 23:18:23 | 只看該作者
多謝分享,下載了
古哥影視論壇www.tdtiyl.tw 高清電影,藍光電影,最新電影,電影天堂,影視帝國,人人影視
回復 支持 反對

使用道具 舉報

4#
發表于 2020-1-9 00:10:44 | 只看該作者
感謝樓主的分享啊!
古哥影視論壇www.tdtiyl.tw 高清電影,藍光電影,最新電影,電影天堂,影視帝國,人人影視
回復 支持 反對

使用道具 舉報

5#
發表于 2020-1-9 07:35:13 | 只看該作者

感謝樓主的無私分享!要想古哥影視好,就靠你我他!
古哥影視論壇www.tdtiyl.tw 高清電影,藍光電影,最新電影,電影天堂,影視帝國,人人影視
回復 支持 反對

使用道具 舉報

6#
發表于 2020-1-9 09:22:48 | 只看該作者
古哥影視論壇www.tdtiyl.tw 高清電影,藍光電影,最新電影,電影天堂,影視帝國,人人影視
回復 支持 反對

使用道具 舉報

7#
發表于 2020-1-9 11:13:12 | 只看該作者
樓主發貼辛苦了,謝謝樓主分享!我覺得古哥影視的電影是最值得收藏的!
古哥影視論壇www.tdtiyl.tw 高清電影,藍光電影,最新電影,電影天堂,影視帝國,人人影視
回復 支持 反對

使用道具 舉報

8#
發表于 2020-1-9 13:03:06 | 只看該作者
樓主發貼辛苦了,謝謝樓主分享!我覺得古哥影視的電影是最值得收藏的!
古哥影視論壇www.tdtiyl.tw 高清電影,藍光電影,最新電影,電影天堂,影視帝國,人人影視
回復 支持 反對

使用道具 舉報

9#
發表于 2020-1-9 20:16:27 | 只看該作者

既然你誠信誠意的推薦了,那我就勉為其難的看看吧!愛電影,愛生活古哥影視不走平凡路。
古哥影視論壇www.tdtiyl.tw 高清電影,藍光電影,最新電影,電影天堂,影視帝國,人人影視
回復 支持 反對

使用道具 舉報

10#
發表于 2020-1-10 21:44:08 | 只看該作者
樓主發貼辛苦了,謝謝樓主分享!我覺得古哥影視的電影是最值得收藏的!
古哥影視論壇www.tdtiyl.tw 高清電影,藍光電影,最新電影,電影天堂,影視帝國,人人影視
回復 支持 反對

使用道具 舉報

11#
發表于 2020-1-11 00:21:36 | 只看該作者

這東西我收了!謝謝樓主!古哥影視真好!一定要堅持下去,支持不住時請讓大家捐助
古哥影視論壇www.tdtiyl.tw 高清電影,藍光電影,最新電影,電影天堂,影視帝國,人人影視
回復 支持 反對

使用道具 舉報

12#
發表于 2020-1-12 09:17:25 | 只看該作者
樓主發貼辛苦了,謝謝樓主分享!我覺得古哥影視的電影是最值得收藏的!
古哥影視論壇www.tdtiyl.tw 高清電影,藍光電影,最新電影,電影天堂,影視帝國,人人影視
回復 支持 反對

使用道具 舉報

13#
發表于 2020-1-12 15:20:35 | 只看該作者

樓主發貼辛苦了
古哥影視論壇www.tdtiyl.tw 高清電影,藍光電影,最新電影,電影天堂,影視帝國,人人影視
回復 支持 反對

使用道具 舉報

懶得打字嘛,點擊右側快捷回復->
您需要登錄后才可以回帖 登錄 | 注冊(分享大片)

本版積分規則

影視帝國免責聲明
本站提供網上學習交流和自由討論使用,所有資源均來自互聯網公開渠道,發布和個人言論并不代表本站立場,本站不負任何責任.
如發現有侵權行為,請與我們聯系.我們將立刻從網站上刪除,并向所有持版權者致最深歉意.
影視帝國論壇已經安全運行

QQ|小黑屋|手機版|Archiver|古哥論壇

GMT+8, 2020-1-30 01:25 , Processed in 0.206923 second(s), 18 queries , Gzip On.

Powered by Discuz! X3.4

© 2001-2017 Comsenz Inc.

快速回復 返回頂部 返回列表
6肖中特期期准最新