古哥論壇

 找回密碼
 注冊(分享大片)
查看: 889|回復: 28
打印 上一主題 下一主題

[第一滴血5]2019.EXTENDED.1080p.BluRay.REMUX.AVC.DTS-HD.MA.5.1-FGT 24.89GB

[復制鏈接]
跳轉到指定樓層
1#
發表于 2020-1-8 23:13:28 | 只看該作者 回帖獎勵 |倒序瀏覽 |閱讀模式
4K天堂


◎譯  名 第一滴血5:最后的血 / Rambo 5 / Rambo 5: Last Blood / Rambo V / Rambo V: Last Blood / 蘭博5:最后一滴血 / 第一滴血5 / 第一滴血:最后一戰 / 第一滴血:終極血戰(港) / 藍波:最后一滴血(臺)
◎片  名 Rambo: Last Blood
◎年  代 2019
◎產  地 美國
◎類  別 動作 / 驚悚 / 冒險
◎語  言 英語
◎上映日期 2019-09-20(美國)
◎IMDb評分 6.7/10 from 23992 users
◎IMDb鏈接 https://www.imdb.com/title/tt1206885
◎豆瓣評分 7.6/10 from 1217 users
◎藍光高清   http://www.4ktt.com
◎片  長 89分鐘
◎導  演 阿德里安·格魯伯格 Adrian Grunberg
◎編  劇 馬修·西魯尼克 Matthew Cirulnick / 大衛·莫瑞爾 David Morrell / 西爾維斯特·史泰龍 Sylvester Stallone
◎主  演 西爾維斯特·史泰龍 Sylvester Stallone
      帕斯·貝加 Paz Vega
      路易·曼迪勒 Louis Mandylor
      奧斯卡·賈恩那達 óscar Jaenada
      維特·蒙雷爾 Yvette Monreal
      華金·科西奧 Joaquín Cosio
      杰西卡·馬德森 Jessica Madsen
      艾德里安娜·巴拉扎 Adriana Barraza
      塞爾吉奧·佩里斯-門切塔 Sergio Peris-Mencheta
      阿塔納斯·斯雷布雷夫 Atanas Srebrev
      尼克·威特曼 Nick Wittman

◎簡  介
  西爾維斯特·史泰龍回歸[第一滴血5],并有望執導。除主演外,據悉史泰龍將操刀劇本,故事圍繞蘭博為營救朋友之女與墨西哥毒梟展開殊死搏斗展開。制片艾威·勒納([敢死隊]系列)。該系列首部于1982年上映,2008年史泰龍曾自導自演[第一滴血4]。[第一滴血5]將在本屆戛納電影節預售,9月開拍。
Video
ID : 1
Format : AVC
Format/Info : Advanced Video Codec
Format profile : [email protected]
Format settings : CABAC / 3 Ref Frames
Format settings, CABAC : Yes
Format settings, Reference frames : 3 frames
Codec ID : V_MPEG4/ISO/AVC
Duration : 1 h 40 min
Bit rate mode : Variable
Bit rate : 32.7 Mb/s
Maximum bit rate : 40.0 Mb/s
Width : 1 920 pixels
Height : 1 080 pixels
Display aspect ratio : 16:9
Frame rate mode : Constant
Frame rate : 23.976 (24000/1001) FPS
Color space : YUV
Chroma subsampling : 4:2:0
Bit depth : 8 bits
Scan type : Progressive
Bits/(Pixel*Frame) : 0.658
Stream size : 22.9 GiB (92%)
Title : Rambo.Last.Blood.2019.EXTENDED.1080p.BluRay.REMUX.AVC.DTS-HD.MA.5.1-FGT
Writing library : x264 core 148 r2638 7599210
Encoding settings : cabac=1 / ref=4 / deblock=1:-1:-1 / analyse=0x3:0x133 / me=umh / subme=10 / psy=1 / psy_rd=1.00:0.15 / mixed_ref=1 / me_range=24 / chroma_me=1 / trellis=2 / 8x8dct=1 / cqm=0 / deadzone=21,11 / fast_pskip=1 / chroma_qp_offset=-3 / threads=18 / lookahead_threads=1 / sliced_threads=0 / slices=4 / nr=0 / decimate=1 / interlaced=0 / bluray_compat=1 / constrained_intra=0 / bframes=3 / b_pyramid=1 / b_adapt=2 / b_bias=0 / direct=3 / weightb=1 / open_gop=1 / weightp=1 / keyint=23 / keyint_min=1 / scenecut=40 / intra_refresh=0 / rc_lookahead=23 / rc=2pass / mbtree=1 / bitrate=32700 / ratetol=1.0 / qcomp=0.60 / qpmin=0 / qpmax=69 / qpstep=4 / cplxblur=20.0 / qblur=0.5 / vbv_maxrate=40000 / vbv_bufsize=30000 / nal_hrd=vbr / filler=0 / ip_ratio=1.40 / aq=1:1.00
Language : English
Default : No
Forced : No
Color range : Limited
Color primaries : BT.709
Transfer characteristics : BT.709
Matrix coefficients : BT.709

Audio
ID : 2
Format : DTS XLL
Format/Info : Digital Theater Systems
Commercial name : DTS-HD Master Audio
Codec ID : A_DTS
Duration : 1 h 40 min
Bit rate mode : Variable
Bit rate : 2 807 kb/s
Channel(s) : 6 channels
Channel layout : C L R Ls Rs LFE
Sampling rate : 48.0 kHz
Frame rate : 93.750 FPS (512 SPF)
Bit depth : 16 bits
Compression mode : Lossless
Stream size : 1.97 GiB (8%)
Title : Rambo.Last.Blood.2019.EXTENDED.1080p.BluRay.REMUX.AVC.DTS-HD.MA.5.1-FGT
Language : English
Default : Yes
Forced : No

Text #1
ID : 3
Format : UTF-8
Codec ID : S_TEXT/UTF8
Codec ID/Info : UTF-8 Plain Text
Duration : 1 h 29 min
Bit rate : 30 b/s
Count of elements : 748
Stream size : 20.0 KiB (0%)
Title : English-SRT
Language : English
Default : Yes
Forced : No

Text #2
ID : 4
Format : PGS
Muxing mode : zlib
Codec ID : S_HDMV/PGS
Codec ID/Info : Picture based subtitle format used on BDs/HD-DVDs
Duration : 1 h 33 min
Bit rate : 23.6 kb/s
Count of elements : 2107
Stream size : 15.8 MiB (0%)
Title : English-PGS
Language : English
Default : No
Forced : No

Menu
00:00:00.000 : en:Chapter 01
00:08:30.301 : en:Chapter 02
00:18:18.305 : en:Chapter 03
00:25:01.791 : en:Chapter 04
00:33:17.662 : en:Chapter 05
00:42:54.780 : en:Chapter 06
00:50:56.428 : en:Chapter 07
00:59:35.780 : en:Chapter 08
01:08:03.329 : en:Chapter 09
01:15:21.683 : en:Chapter 10
01:25:46.683 : en:Chapter 11
01:33:41.949 : en:Chapter 12




游客,如果您要查看本帖隱藏內容請回復,如果您想無廣告、免回復、下載附件免影視幣請開通VIP:VIP傳送門


古哥影視論壇www.tdtiyl.tw 高清電影,藍光電影,最新電影,電影天堂,影視帝國,人人影視
2#
發表于 2020-1-8 23:28:08 | 只看該作者
感謝分享,下載嘍
古哥影視論壇www.tdtiyl.tw 高清電影,藍光電影,最新電影,電影天堂,影視帝國,人人影視
回復 支持 反對

使用道具 舉報

3#
發表于 2020-1-8 23:45:41 | 只看該作者
這東西我收了!謝謝樓主!古哥影視真好!一定要堅持下去,支持不住時請讓大家捐助





......
古哥影視論壇www.tdtiyl.tw 高清電影,藍光電影,最新電影,電影天堂,影視帝國,人人影視
回復 支持 反對

使用道具 舉報

4#
發表于 2020-1-9 00:11:45 | 只看該作者
感謝樓主的分享啊!
古哥影視論壇www.tdtiyl.tw 高清電影,藍光電影,最新電影,電影天堂,影視帝國,人人影視
回復 支持 反對

使用道具 舉報

5#
發表于 2020-1-9 01:26:20 | 只看該作者
西爾維斯特·史泰龍回歸[第一滴血5],
古哥影視論壇www.tdtiyl.tw 高清電影,藍光電影,最新電影,電影天堂,影視帝國,人人影視
回復 支持 反對

使用道具 舉報

6#
發表于 2020-1-9 07:25:13 | 只看該作者
感謝分享樓主
古哥影視論壇www.tdtiyl.tw 高清電影,藍光電影,最新電影,電影天堂,影視帝國,人人影視
回復 支持 反對

使用道具 舉報

7#
發表于 2020-1-9 09:09:53 | 只看該作者
不錯不錯喜歡第一滴血~
古哥影視論壇www.tdtiyl.tw 高清電影,藍光電影,最新電影,電影天堂,影視帝國,人人影視
回復 支持 反對

使用道具 舉報

8#
發表于 2020-1-9 09:22:17 | 只看該作者
古哥影視論壇www.tdtiyl.tw 高清電影,藍光電影,最新電影,電影天堂,影視帝國,人人影視
回復 支持 反對

使用道具 舉報

9#
發表于 2020-1-9 10:28:47 | 只看該作者
樓主發貼辛苦了,謝謝樓主分享!我覺得古哥影視的電影是最值得收藏的!
古哥影視論壇www.tdtiyl.tw 高清電影,藍光電影,最新電影,電影天堂,影視帝國,人人影視
回復 支持 反對

使用道具 舉報

10#
發表于 2020-1-9 11:16:42 | 只看該作者
感謝樓主分享
古哥影視論壇www.tdtiyl.tw 高清電影,藍光電影,最新電影,電影天堂,影視帝國,人人影視
回復 支持 反對

使用道具 舉報

11#
發表于 2020-1-9 13:02:10 | 只看該作者
樓主發貼辛苦了,謝謝樓主分享!我覺得古哥影視的電影是最值得收藏的!
古哥影視論壇www.tdtiyl.tw 高清電影,藍光電影,最新電影,電影天堂,影視帝國,人人影視
回復 支持 反對

使用道具 舉報

13#
發表于 2020-1-11 20:33:01 | 只看該作者
樓主發貼辛苦了,謝謝樓主分享!我覺得古哥影視的電影是最值得收藏的!
古哥影視論壇www.tdtiyl.tw 高清電影,藍光電影,最新電影,電影天堂,影視帝國,人人影視
回復 支持 反對

使用道具 舉報

14#
發表于 2020-1-12 16:14:11 | 只看該作者
感謝樓主分享 辛苦了
古哥影視論壇www.tdtiyl.tw 高清電影,藍光電影,最新電影,電影天堂,影視帝國,人人影視
回復 支持 反對

使用道具 舉報

15#
發表于 2020-1-12 16:31:20 | 只看該作者
感謝樓主分享 辛苦了
古哥影視論壇www.tdtiyl.tw 高清電影,藍光電影,最新電影,電影天堂,影視帝國,人人影視
回復 支持 反對

使用道具 舉報

16#
發表于 2020-1-14 11:31:44 | 只看該作者
給一個upju9uinyut6f 發
古哥影視論壇www.tdtiyl.tw 高清電影,藍光電影,最新電影,電影天堂,影視帝國,人人影視
回復 支持 反對

使用道具 舉報

17#
發表于 2020-1-14 16:24:20 | 只看該作者
這東西我收了!謝謝樓主!古哥影視真好!一定要堅持下去,支持不住時請讓大家捐助
古哥影視論壇www.tdtiyl.tw 高清電影,藍光電影,最新電影,電影天堂,影視帝國,人人影視
回復 支持 反對

使用道具 舉報

18#
發表于 2020-1-14 18:55:50 | 只看該作者
vb就那么,電影,大家分享
古哥影視論壇www.tdtiyl.tw 高清電影,藍光電影,最新電影,電影天堂,影視帝國,人人影視
回復 支持 反對

使用道具 舉報

19#
發表于 2020-1-14 21:29:21 | 只看該作者
期望好看,老當力壯
古哥影視論壇www.tdtiyl.tw 高清電影,藍光電影,最新電影,電影天堂,影視帝國,人人影視
回復 支持 反對

使用道具 舉報

20#
發表于 2020-1-15 14:45:33 | 只看該作者
樓主發貼辛苦了,謝謝樓主分享!我覺得古哥影視的電影是最值得收藏的!
古哥影視論壇www.tdtiyl.tw 高清電影,藍光電影,最新電影,電影天堂,影視帝國,人人影視
回復 支持 反對

使用道具 舉報

懶得打字嘛,點擊右側快捷回復->
您需要登錄后才可以回帖 登錄 | 注冊(分享大片)

本版積分規則

影視帝國免責聲明
本站提供網上學習交流和自由討論使用,所有資源均來自互聯網公開渠道,發布和個人言論并不代表本站立場,本站不負任何責任.
如發現有侵權行為,請與我們聯系.我們將立刻從網站上刪除,并向所有持版權者致最深歉意.
影視帝國論壇已經安全運行

QQ|小黑屋|手機版|Archiver|古哥論壇

GMT+8, 2020-1-30 02:01 , Processed in 0.217551 second(s), 18 queries , Gzip On.

Powered by Discuz! X3.4

© 2001-2017 Comsenz Inc.

快速回復 返回頂部 返回列表
6肖中特期期准最新