古哥論壇

 找回密碼
 注冊(分享大片)
查看: 1089|回復: 89

[攻擊鏈]Kill.Chain.2019.1080p.BluRay.REMUX.AVC.DTS-HD.MA.5.1-FGT 22.89GB

[復制鏈接]
發表于 2020-1-8 23:15:32 | 顯示全部樓層 |閱讀模式
4K天堂


◎譯  名 攻擊鏈
◎片  名 Kill Chain
◎年  代 2019
◎產  地 美國
◎類  別 動作
◎上映日期 2019-10-18(美國)
◎IMDb鏈接 https://www.imdb.com/title/tt8535180
◎豆瓣評分 0/10 from 0 users
◎藍光高清   http://www.4ktt.com
◎導  演 肯·桑澤爾 Ken Sanzel
◎編  劇 肯·桑澤爾 Ken Sanzel
◎主  演 尼古拉斯·凱奇 Nicolas Cage

◎簡  介
  尼古拉斯·凱奇或將出演全新影片[攻擊鏈](Kill Chain,暫譯),該片由肯·桑澤爾([替身殺手])自編自導。故事講述三個陌生人,他們彼此將陷入前所未有的沖突中。該片在戛納電影節上被形容為最棒的黑色偵探影片。千禧年影業負責制作。
Video
ID : 1
Format : AVC
Format/Info : Advanced Video Codec
Format profile : [email protected]
Format settings : CABAC / 4 Ref Frames
Format settings, CABAC : Yes
Format settings, Reference frames : 4 frames
Codec ID : V_MPEG4/ISO/AVC
Duration : 1 h 31 min
Bit rate mode : Variable
Bit rate : 32.4 Mb/s
Maximum bit rate : 36.0 Mb/s
Width : 1 920 pixels
Height : 1 080 pixels
Display aspect ratio : 16:9
Frame rate mode : Constant
Frame rate : 23.976 (24000/1001) FPS
Color space : YUV
Chroma subsampling : 4:2:0
Bit depth : 8 bits
Scan type : Progressive
Bits/(Pixel*Frame) : 0.652
Stream size : 20.7 GiB (91%)
Title : Kill.Chain.2019.1080p.BluRay.REMUX.AVC.DTS-HD.MA.5.1-FGT
Language : English
Default : No
Forced : No

Audio
ID : 2
Format : DTS XLL
Format/Info : Digital Theater Systems
Commercial name : DTS-HD Master Audio
Codec ID : A_DTS
Duration : 1 h 31 min
Bit rate mode : Variable
Bit rate : 3 346 kb/s
Channel(s) : 6 channels
Channel layout : C L R Ls Rs LFE
Sampling rate : 48.0 kHz
Frame rate : 93.750 FPS (512 SPF)
Bit depth : 24 bits
Compression mode : Lossless
Stream size : 2.14 GiB (9%)
Title : Kill.Chain.2019.1080p.BluRay.REMUX.AVC.DTS-HD.MA.5.1-FGT
Language : English
Default : Yes
Forced : No

Text
ID : 3
Format : UTF-8
Codec ID : S_TEXT/UTF8
Codec ID/Info : UTF-8 Plain Text
Duration : 1 h 22 min
Bit rate : 43 b/s
Count of elements : 899
Stream size : 26.3 KiB (0%)
Language : English
Default : Yes
Forced : No

Menu
00:00:00.000 : en:Chapter 01
00:08:08.571 : en:Chapter 02
00:17:51.653 : en:Chapter 03
00:27:55.298 : en:Chapter 04
00:37:01.719 : en:Chapter 05
00:47:43.527 : en:Chapter 06
00:56:37.102 : en:Chapter 07
01:07:27.376 : en:Chapter 08
01:18:21.446 : en:Chapter 09





游客,如果您要查看本帖隱藏內容請回復,如果您想無廣告、免回復、下載附件免影視幣請開通VIP:VIP傳送門

古哥影視論壇www.tdtiyl.tw 高清電影,藍光電影,最新電影,電影天堂,影視帝國,人人影視
發表于 2020-1-8 23:19:03 | 顯示全部樓層
謝謝!收下了!!!
古哥影視論壇www.tdtiyl.tw 高清電影,藍光電影,最新電影,電影天堂,影視帝國,人人影視
回復 支持 反對

使用道具 舉報

發表于 2020-1-8 23:30:33 | 顯示全部樓層
多謝分享,下載嘍
古哥影視論壇www.tdtiyl.tw 高清電影,藍光電影,最新電影,電影天堂,影視帝國,人人影視
回復 支持 反對

使用道具 舉報

發表于 2020-1-8 23:45:34 | 顯示全部樓層
這東西我收了!謝謝樓主!古哥影視真好!一定要堅持下去,支持不住時請讓大家捐助





......
古哥影視論壇www.tdtiyl.tw 高清電影,藍光電影,最新電影,電影天堂,影視帝國,人人影視
回復 支持 反對

使用道具 舉報

發表于 2020-1-8 23:56:00 | 顯示全部樓層
擊鏈]Kill.Chain.2019.1080p.BluRay.REMUX.AVC.DTS-HD
古哥影視論壇www.tdtiyl.tw 高清電影,藍光電影,最新電影,電影天堂,影視帝國,人人影視
回復 支持 反對

使用道具 舉報

發表于 2020-1-9 00:12:29 | 顯示全部樓層
感謝樓主的分享啊!
古哥影視論壇www.tdtiyl.tw 高清電影,藍光電影,最新電影,電影天堂,影視帝國,人人影視
回復 支持 反對

使用道具 舉報

發表于 2020-1-9 09:07:21 | 顯示全部樓層
古哥影視論壇www.tdtiyl.tw 高清電影,藍光電影,最新電影,電影天堂,影視帝國,人人影視
回復 支持 反對

使用道具 舉報

發表于 2020-1-9 10:43:46 | 顯示全部樓層

樓主太厲害了!樓主,I*老*虎*U!古哥影視絕對是電影愛好的天堂!
古哥影視論壇www.tdtiyl.tw 高清電影,藍光電影,最新電影,電影天堂,影視帝國,人人影視
回復 支持 反對

使用道具 舉報

發表于 2020-1-9 11:02:54 | 顯示全部樓層

樓主太厲害了!樓主,I*老*虎*U!古哥影視絕對是電影愛好的天堂!
古哥影視論壇www.tdtiyl.tw 高清電影,藍光電影,最新電影,電影天堂,影視帝國,人人影視
回復 支持 反對

使用道具 舉報

發表于 2020-1-9 14:06:51 | 顯示全部樓層

這東西我收了!謝謝樓主!古哥影視真好!一定要堅持下去,支持不住時請讓大家捐助
古哥影視論壇www.tdtiyl.tw 高清電影,藍光電影,最新電影,電影天堂,影視帝國,人人影視
回復 支持 反對

使用道具 舉報

發表于 2020-1-9 16:57:39 | 顯示全部樓層

樓主,大恩不言謝了!我只能將古哥影視分享給我的電影愛好者群里!
古哥影視論壇www.tdtiyl.tw 高清電影,藍光電影,最新電影,電影天堂,影視帝國,人人影視
回復 支持 反對

使用道具 舉報

發表于 2020-1-9 18:08:54 | 顯示全部樓層
感謝樓主分享!永遠支持古哥影視
古哥影視論壇www.tdtiyl.tw 高清電影,藍光電影,最新電影,電影天堂,影視帝國,人人影視
回復 支持 反對

使用道具 舉報

發表于 2020-1-9 18:54:31 | 顯示全部樓層
謝謝樓主分享好片
古哥影視論壇www.tdtiyl.tw 高清電影,藍光電影,最新電影,電影天堂,影視帝國,人人影視
回復 支持 反對

使用道具 舉報

發表于 2020-1-9 19:42:28 | 顯示全部樓層
樓主發貼辛苦了,謝謝樓主分享!我覺得古哥影視的電影是最值得收藏的!
古哥影視論壇www.tdtiyl.tw 高清電影,藍光電影,最新電影,電影天堂,影視帝國,人人影視
回復 支持 反對

使用道具 舉報

發表于 2020-1-9 20:05:41 | 顯示全部樓層
感謝樓主分享
古哥影視論壇www.tdtiyl.tw 高清電影,藍光電影,最新電影,電影天堂,影視帝國,人人影視
回復 支持 反對

使用道具 舉報

發表于 2020-1-9 20:12:27 | 顯示全部樓層

感謝樓主的無私分享!要想古哥影視好,就靠你我他!
古哥影視論壇www.tdtiyl.tw 高清電影,藍光電影,最新電影,電影天堂,影視帝國,人人影視
回復 支持 反對

使用道具 舉報

發表于 2020-1-9 20:15:15 | 顯示全部樓層

我看不錯噢 謝謝樓主!古哥影視越來越好,高清電影還得上這來下載!
古哥影視論壇www.tdtiyl.tw 高清電影,藍光電影,最新電影,電影天堂,影視帝國,人人影視
回復 支持 反對

使用道具 舉報

發表于 2020-1-9 20:15:36 | 顯示全部樓層
魚兒水中游 發表于 2020-1-8 23:56
擊鏈]Kill.Chain.2019.1080p.BluRay.REMUX.AVC.DTS-HD

其實快捷回復挺好用的。
古哥影視論壇www.tdtiyl.tw 高清電影,藍光電影,最新電影,電影天堂,影視帝國,人人影視
回復 支持 反對

使用道具 舉報

懶得打字嘛,點擊右側快捷回復->
您需要登錄后才可以回帖 登錄 | 注冊(分享大片)

本版積分規則

影視帝國免責聲明
本站提供網上學習交流和自由討論使用,所有資源均來自互聯網公開渠道,發布和個人言論并不代表本站立場,本站不負任何責任.
如發現有侵權行為,請與我們聯系.我們將立刻從網站上刪除,并向所有持版權者致最深歉意.
影視帝國論壇已經安全運行

QQ|小黑屋|手機版|Archiver|古哥論壇

GMT+8, 2020-1-30 02:36 , Processed in 0.225991 second(s), 21 queries , Gzip On.

Powered by Discuz! X3.4

© 2001-2017 Comsenz Inc.

快速回復 返回頂部 返回列表
6肖中特期期准最新