古哥論壇

 找回密碼
 注冊(分享大片)
查看: 893|回復: 40
打印 上一主題 下一主題

[沉睡魔咒2]2019.1080p.BluRay.REMUX.AVC.DTS-HD.MA.TrueHD.7.1.Atmos-FGT 37.65GB

[復制鏈接]
跳轉到指定樓層
1#
發表于 2020-1-8 23:20:55 | 只看該作者 回帖獎勵 |倒序瀏覽 |閱讀模式
4K天堂


◎譯  名 沉睡魔咒2 / Maleficent 2 / 沉睡魔咒2:惡魔夫人 / 瑪琳菲森2 / 黑魔后2(港) / 黑魔女2(臺)
◎片  名 Maleficent: Mistress of Evil
◎年  代 2019
◎產  地 美國
◎類  別 奇幻 / 冒險
◎語  言 英語
◎上映日期 2019-10-18(美國/中國大陸)
◎IMDb評分 7.0/10 from 1529 users
◎IMDb鏈接 https://www.imdb.com/title/tt4777008
◎豆瓣評分 6.3/10 from 3915 users
◎藍光高清   http://www.4ktt.com
◎片  長 119分鐘
◎導  演 喬阿吉姆·羅恩尼 Joachim R?nning
◎編  劇 邁卡·費茲曼-布盧 Micah Fitzerman-Blue / 諾亞·哈普斯特 Noah Harpster / 琳達·伍爾芙頓 Linda Woolverton
◎主  演 安吉麗娜·朱莉 Angelina Jolie
      艾麗·范寧 Elle Fanning
      米歇爾·菲佛 Michelle Pfeiffer
      薩姆·賴利 Sam Riley
      哈里斯·迪金森 Harris Dickinson
      艾德·斯克林 Ed Skrein
      切瓦特·埃加福特 Chiwetel Ejiofor
      朱諾·坦普爾 Juno Temple
      艾美達·斯丹頓 Imelda Staunton
      卡·亞歷山大 Kae Alexander
      萊絲利·曼維爾 Lesley Manville
      詹·穆瑞 Jenn Murray
      石原貴雅 Miyavi
      大衛·吉雅西 David Gyasi
      羅伯特·林德森 Robert Lindsay
      朱迪斯·沙克妮 Judith Shekoni
      伯納多·桑托斯 Bernardo Santos
      薩克·霍蘭 Zak Holland
      巴里·艾爾德 Barry Aird
      耶斯·利奧丹 Jess Liaudin
      拉塞爾·巴洛格 Russell Balogh
      拉亞·坎普貝爾 Rayna Campbell
      斯嘉麗·格蘭特 Scarlett Grant
      湯姆·伯寧頓 Tom Bonington
      阿克塞爾·努 Axel Nu
      特蕾莎·馬奧尼 Teresa Mahoney
      John Carew

◎簡  介
  《沉睡魔咒》續集將講述魔女瑪琳菲森(朱莉)和將成為女王的愛洛公主(范寧)關系緩和但依舊復雜,但兩人要聯手對付新的反派,保護森林王國和那里神奇的動物們。
Video
ID : 1
Format : AVC
Format/Info : Advanced Video Codec
Format profile : [email protected]
Format settings : CABAC / 4 Ref Frames
Format settings, CABAC : Yes
Format settings, Reference frames : 4 frames
Codec ID : V_MPEG4/ISO/AVC
Duration : 1 h 58 min
Bit rate mode : Variable
Bit rate : 32.6 Mb/s
Maximum bit rate : 35.0 Mb/s
Width : 1 920 pixels
Height : 1 080 pixels
Display aspect ratio : 16:9
Frame rate mode : Constant
Frame rate : 23.976 (24000/1001) FPS
Color space : YUV
Chroma subsampling : 4:2:0
Bit depth : 8 bits
Scan type : Progressive
Bits/(Pixel*Frame) : 0.657
Stream size : 27.1 GiB (72%)
Title : Maleficent.Mistress.of.Evil.2019.1080p.BluRay.REMUX.AVC.DTS-HD.MA.TrueHD.7.1.Atmos-FGT
Language : English
Default : No
Forced : No

Audio #1
ID : 2
Format : MLP FBA 16-ch
Format/Info : Meridian Lossless Packing FBA with 16-channel presentation
Commercial name : Dolby TrueHD with Dolby Atmos
Codec ID : A_TRUEHD
Duration : 1 h 58 min
Bit rate mode : Variable
Bit rate : 5 128 kb/s
Maximum bit rate : 8 160 kb/s
Channel(s) : 8 channels
Channel layout : L R C LFE Ls Rs Lb Rb
Sampling rate : 48.0 kHz
Frame rate : 1 200.000 FPS (40 SPF)
Compression mode : Lossless
Stream size : 4.26 GiB (11%)
Title : Maleficent.Mistress.of.Evil.2019.1080p.BluRay.REMUX.AVC.DTS-HD.MA.TrueHD.7.1.Atmos-FGT
Language : English
Default : Yes
Forced : No
Number of dynamic objects : 13
Bed channel count : 1 channel
Bed channel configuration : LFE

Audio #2
ID : 3
Format : DTS XLL
Format/Info : Digital Theater Systems
Commercial name : DTS-HD Master Audio
Codec ID : A_DTS
Duration : 1 h 58 min
Bit rate mode : Variable
Bit rate : 5 249 kb/s
Channel(s) : 8 channels
Channel layout : C L R LFE Lb Rb Lss Rss
Sampling rate : 48.0 kHz
Frame rate : 93.750 FPS (512 SPF)
Bit depth : 24 bits
Compression mode : Lossless
Stream size : 4.36 GiB (12%)
Title : Maleficent.Mistress.of.Evil.2019.1080p.BluRay.REMUX.AVC.DTS-HD.MA.TrueHD.7.1.Atmos-FGT
Language : English
Default : No
Forced : No

Audio #3
ID : 4
Format : AC-3
Format/Info : Audio Coding 3
Commercial name : Dolby Digital
Codec ID : A_AC3
Duration : 1 h 58 min
Bit rate mode : Constant
Bit rate : 640 kb/s
Channel(s) : 6 channels
Channel layout : L R C LFE Ls Rs
Sampling rate : 48.0 kHz
Frame rate : 31.250 FPS (1536 SPF)
Bit depth : 16 bits
Compression mode : Lossy
Stream size : 544 MiB (1%)
Title : Maleficent.Mistress.of.Evil.2019.1080p.BluRay.REMUX.AVC.DTS-HD.MA.TrueHD.7.1.Atmos-FGT
Language : English
Service kind : Complete Main
Default : No
Forced : No

Audio #4
ID : 5
Format : AC-3
Format/Info : Audio Coding 3
Commercial name : Dolby Digital
Codec ID : A_AC3
Duration : 1 h 58 min
Bit rate mode : Constant
Bit rate : 320 kb/s
Channel(s) : 2 channels
Channel layout : L R
Sampling rate : 48.0 kHz
Frame rate : 31.250 FPS (1536 SPF)
Bit depth : 16 bits
Compression mode : Lossy
Stream size : 272 MiB (1%)
Title : Maleficent.Mistress.of.Evil.2019.1080p.BluRay.REMUX.AVC.DTS-HD.MA.TrueHD.7.1.Atmos-FGT
Language : English
Service kind : Complete Main
Default : No
Forced : No

Audio #5
ID : 6
Format : AC-3
Format/Info : Audio Coding 3
Commercial name : Dolby Digital
Codec ID : A_AC3
Duration : 1 h 58 min
Bit rate mode : Constant
Bit rate : 640 kb/s
Channel(s) : 6 channels
Channel layout : L R C LFE Ls Rs
Sampling rate : 48.0 kHz
Frame rate : 31.250 FPS (1536 SPF)
Bit depth : 16 bits
Compression mode : Lossy
Stream size : 544 MiB (1%)
Title : Maleficent.Mistress.of.Evil.2019.1080p.BluRay.REMUX.AVC.DTS-HD.MA.TrueHD.7.1.Atmos-FGT
Language : French
Service kind : Complete Main
Default : No
Forced : No

Audio #6
ID : 7
Format : AC-3
Format/Info : Audio Coding 3
Commercial name : Dolby Digital
Codec ID : A_AC3
Duration : 1 h 58 min
Bit rate mode : Constant
Bit rate : 640 kb/s
Channel(s) : 6 channels
Channel layout : L R C LFE Ls Rs
Sampling rate : 48.0 kHz
Frame rate : 31.250 FPS (1536 SPF)
Bit depth : 16 bits
Compression mode : Lossy
Stream size : 544 MiB (1%)
Title : Maleficent.Mistress.of.Evil.2019.1080p.BluRay.REMUX.AVC.DTS-HD.MA.TrueHD.7.1.Atmos-FGT
Language : Spanish
Service kind : Complete Main
Default : No
Forced : No

Text #1
ID : 8
Format : UTF-8
Codec ID : S_TEXT/UTF8
Codec ID/Info : UTF-8 Plain Text
Duration : 1 h 52 min
Bit rate : 34 b/s
Count of elements : 1145
Stream size : 28.3 KiB (0%)
Title : English-SRT
Language : English
Default : Yes
Forced : No

Text #2
ID : 9
Format : PGS
Muxing mode : zlib
Codec ID : S_HDMV/PGS
Codec ID/Info : Picture based subtitle format used on BDs/HD-DVDs
Duration : 1 h 53 min
Bit rate : 31.0 kb/s
Count of elements : 3210
Stream size : 25.1 MiB (0%)
Title : English-PGS
Language : English
Default : No
Forced : No

Text #3
ID : 10
Format : PGS
Muxing mode : zlib
Codec ID : S_HDMV/PGS
Codec ID/Info : Picture based subtitle format used on BDs/HD-DVDs
Duration : 1 h 57 min
Bit rate : 21.4 kb/s
Count of elements : 2078
Stream size : 18.0 MiB (0%)
Title : French-PGS
Language : French
Default : No
Forced : No

Text #4
ID : 11
Format : PGS
Muxing mode : zlib
Codec ID : S_HDMV/PGS
Codec ID/Info : Picture based subtitle format used on BDs/HD-DVDs
Duration : 1 h 48 min
Bit rate : 21.2 kb/s
Count of elements : 2022
Stream size : 16.5 MiB (0%)
Title : Spanish-PGS
Language : Spanish
Default : No
Forced : No

Text #5
ID : 12
Format : PGS
Muxing mode : zlib
Codec ID : S_HDMV/PGS
Codec ID/Info : Picture based subtitle format used on BDs/HD-DVDs
Duration : 2 min 24 s
Bit rate : 11.7 kb/s
Count of elements : 34
Stream size : 207 KiB (0%)
Title : French-FORCED-PGS
Language : French
Default : No
Forced : No

Text #6
ID : 13
Format : PGS
Muxing mode : zlib
Codec ID : S_HDMV/PGS
Codec ID/Info : Picture based subtitle format used on BDs/HD-DVDs
Duration : 7 s 28 ms
Bit rate : 21.2 kb/s
Count of elements : 2
Stream size : 18.2 KiB (0%)
Title : Spanish-FORCED-PGS
Language : Spanish
Default : No
Forced : No

Menu
00:00:00.000 : en:Chapter 01
00:06:47.907 : en:Chapter 02
00:09:11.676 : en:Chapter 03
00:14:45.551 : en:Chapter 04
00:19:27.833 : en:Chapter 05
00:23:10.555 : en:Chapter 06
00:33:51.904 : en:Chapter 07
00:39:10.264 : en:Chapter 08
00:42:19.578 : en:Chapter 09
00:48:31.992 : en:Chapter 10
00:52:44.744 : en:Chapter 11
00:57:15.140 : en:Chapter 12
00:59:26.145 : en:Chapter 13
01:05:47.568 : en:Chapter 14
01:09:31.750 : en:Chapter 15
01:19:07.242 : en:Chapter 16
01:22:48.546 : en:Chapter 17
01:29:09.218 : en:Chapter 18
01:35:00.653 : en:Chapter 19
01:44:26.510 : en:Chapter 20
01:51:06.993 : en:Chapter 21




游客,如果您要查看本帖隱藏內容請回復,如果您想無廣告、免回復、下載附件免影視幣請開通VIP:VIP傳送門


古哥影視論壇www.tdtiyl.tw 高清電影,藍光電影,最新電影,電影天堂,影視帝國,人人影視
2#
發表于 2020-1-8 23:33:07 | 只看該作者
多謝分享,下載收藏
古哥影視論壇www.tdtiyl.tw 高清電影,藍光電影,最新電影,電影天堂,影視帝國,人人影視
回復 支持 反對

使用道具 舉報

3#
發表于 2020-1-8 23:45:21 | 只看該作者
既然你誠信誠意的推薦了,那我就勉為其難的看看吧!愛電影,愛生活古哥影視不走平凡路。





......
古哥影視論壇www.tdtiyl.tw 高清電影,藍光電影,最新電影,電影天堂,影視帝國,人人影視
回復 支持 反對

使用道具 舉報

4#
發表于 2020-1-8 23:53:16 | 只看該作者
[沉睡魔咒2]2019.1080p.BluRay.REMUX.AVC.DTS-HD.MA.TrueHD.7.1.Atmos-FGT 37.65GB
古哥影視論壇www.tdtiyl.tw 高清電影,藍光電影,最新電影,電影天堂,影視帝國,人人影視
回復 支持 反對

使用道具 舉報

5#
發表于 2020-1-9 00:14:27 | 只看該作者
感謝樓主的分享啊!
古哥影視論壇www.tdtiyl.tw 高清電影,藍光電影,最新電影,電影天堂,影視帝國,人人影視
回復 支持 反對

使用道具 舉報

6#
發表于 2020-1-9 01:01:29 | 只看該作者

這東西我收了!謝謝樓主!古哥影視真好!一定要堅持下去,支持不住時請讓大家捐助
古哥影視論壇www.tdtiyl.tw 高清電影,藍光電影,最新電影,電影天堂,影視帝國,人人影視
回復 支持 反對

使用道具 舉報

7#
發表于 2020-1-9 01:09:35 | 只看該作者
thanks for the hard works!
古哥影視論壇www.tdtiyl.tw 高清電影,藍光電影,最新電影,電影天堂,影視帝國,人人影視
回復 支持 反對

使用道具 舉報

9#
發表于 2020-1-9 09:06:10 | 只看該作者
古哥影視論壇www.tdtiyl.tw 高清電影,藍光電影,最新電影,電影天堂,影視帝國,人人影視
回復 支持 反對

使用道具 舉報

10#
發表于 2020-1-9 09:42:23 | 只看該作者
樓主發貼辛苦了,謝謝樓主分享!我覺得古哥影視的電影是最值得收藏的!
古哥影視論壇www.tdtiyl.tw 高清電影,藍光電影,最新電影,電影天堂,影視帝國,人人影視
回復 支持 反對

使用道具 舉報

11#
發表于 2020-1-9 10:14:30 | 只看該作者
感謝感謝樓主分享
古哥影視論壇www.tdtiyl.tw 高清電影,藍光電影,最新電影,電影天堂,影視帝國,人人影視
回復 支持 反對

使用道具 舉報

12#
發表于 2020-1-9 12:19:06 | 只看該作者
樓主發貼辛苦了,謝謝樓主分享!我覺得古哥影視的電影是最值得收藏的!
古哥影視論壇www.tdtiyl.tw 高清電影,藍光電影,最新電影,電影天堂,影視帝國,人人影視
回復 支持 反對

使用道具 舉報

13#
發表于 2020-1-9 18:07:46 | 只看該作者
感謝樓主分享!永遠支持古哥影視
古哥影視論壇www.tdtiyl.tw 高清電影,藍光電影,最新電影,電影天堂,影視帝國,人人影視
回復 支持 反對

使用道具 舉報

14#
發表于 2020-1-9 21:31:43 | 只看該作者
樓主發貼辛苦了,謝謝樓主分享!我覺得古哥影視的電影是最值得收藏的!
古哥影視論壇www.tdtiyl.tw 高清電影,藍光電影,最新電影,電影天堂,影視帝國,人人影視
回復 支持 反對

使用道具 舉報

17#
發表于 2020-1-10 23:54:27 | 只看該作者
感謝·版主·
古哥影視論壇www.tdtiyl.tw 高清電影,藍光電影,最新電影,電影天堂,影視帝國,人人影視
回復 支持 反對

使用道具 舉報

18#
發表于 2020-1-11 09:56:08 | 只看該作者
了;盧卡斯京東方
古哥影視論壇www.tdtiyl.tw 高清電影,藍光電影,最新電影,電影天堂,影視帝國,人人影視
回復 支持 反對

使用道具 舉報

19#
發表于 2020-1-12 14:08:08 | 只看該作者
多謝分享,下載
古哥影視論壇www.tdtiyl.tw 高清電影,藍光電影,最新電影,電影天堂,影視帝國,人人影視
回復 支持 反對

使用道具 舉報

20#
發表于 2020-1-12 14:11:56 | 只看該作者
v地方vdfvdvdvdvdvdvdvd   
古哥影視論壇www.tdtiyl.tw 高清電影,藍光電影,最新電影,電影天堂,影視帝國,人人影視
回復 支持 反對

使用道具 舉報

懶得打字嘛,點擊右側快捷回復->
您需要登錄后才可以回帖 登錄 | 注冊(分享大片)

本版積分規則

影視帝國免責聲明
本站提供網上學習交流和自由討論使用,所有資源均來自互聯網公開渠道,發布和個人言論并不代表本站立場,本站不負任何責任.
如發現有侵權行為,請與我們聯系.我們將立刻從網站上刪除,并向所有持版權者致最深歉意.
影視帝國論壇已經安全運行

QQ|小黑屋|手機版|Archiver|古哥論壇

GMT+8, 2020-1-30 01:34 , Processed in 0.229830 second(s), 19 queries , Gzip On.

Powered by Discuz! X3.4

© 2001-2017 Comsenz Inc.

快速回復 返回頂部 返回列表
6肖中特期期准最新