古哥論壇

 找回密碼
 注冊(分享大片)
查看: 895|回復: 29
打印 上一主題 下一主題

[燈塔]The.Lighthouse.2019.1080p.BluRay.REMUX.AVC.DTS-HD.MA.5.1-FGT 29.52GB

[復制鏈接]
跳轉到指定樓層
1#
發表于 2020-1-8 23:22:45 | 只看該作者 回帖獎勵 |倒序瀏覽 |閱讀模式
4K天堂


◎譯  名 燈塔
◎片  名 The Lighthouse
◎年  代 2019
◎產  地 加拿大 / 美國
◎類  別 劇情 / 恐怖 / 奇幻
◎語  言 英語
◎上映日期 2019-05-19(戛納電影節) / 2019-10-18(美國)
◎IMDb評分 8.3/10 from 19266 users
◎IMDb鏈接 https://www.imdb.com/title/tt7984734
◎豆瓣評分 7.8/10 from 1403 users
◎藍光高清   http://www.4ktt.com
◎片  長 110分鐘
◎導  演 羅伯特·艾格斯 Robert Eggers
◎編  劇 羅伯特·艾格斯 Robert Eggers / 馬克斯·艾格斯 Max Eggers
◎主  演 威廉·達福 Willem Dafoe
      羅伯特·帕丁森 Robert Pattinson
      Valeriia Karaman

◎簡  介
  1890 年代新英格蘭某海島上兩個燈塔看守人 (威廉·達福 和 羅伯特·帕丁森 飾) 的故事


◎獲獎情況
  第72屆戛納電影節(2019)
  導演雙周單元(提名) 羅伯特·艾格斯
  費比西獎 導演雙周單元

  第25屆美國評論家選擇電影獎(2020)
  最佳男配角(提名) 威廉·達福
  最佳攝影(提名)

  第35屆美國獨立精神獎(2020)
  最佳導演(提名) 羅伯特·艾格斯
  最佳男主角(提名) 羅伯特·帕丁森
  最佳男配角(提名) 威廉·達福
  最佳攝影(提名)
  最佳剪輯(提名)

  第29屆哥譚獨立電影獎(2019)
  最佳男演員(提名) 威廉·達福

  第24屆金衛星獎(2020)
  電影部門 最佳劇情片(提名)
  電影部門 最佳男配角(提名) 威廉·達福

  第40屆倫敦影評人協會獎(2020)
  年度英國/愛爾蘭男演員(提名) 羅伯特·帕丁森

  第32屆芝加哥影評人協會獎(2019)
  最佳攝影(提名) Jarin Blaschke
Video
ID : 1
Format : AVC
Format/Info : Advanced Video Codec
Format profile : [email protected]
Format settings : CABAC / 4 Ref Frames
Format settings, CABAC : Yes
Format settings, Reference frames : 4 frames
Codec ID : V_MPEG4/ISO/AVC
Duration : 1 h 49 min
Bit rate mode : Variable
Bit rate : 34.7 Mb/s
Maximum bit rate : 37.0 Mb/s
Width : 1 920 pixels
Height : 1 080 pixels
Display aspect ratio : 16:9
Frame rate mode : Constant
Frame rate : 23.976 (24000/1001) FPS
Color space : YUV
Chroma subsampling : 4:2:0
Bit depth : 8 bits
Scan type : Progressive
Bits/(Pixel*Frame) : 0.699
Stream size : 26.5 GiB (90%)
Title : The.Lighthouse.2019.1080p.BluRay.REMUX.AVC.DTS-HD.MA.5.1-FGT
Language : English
Default : No
Forced : No

Audio #1
ID : 2
Format : DTS XLL
Format/Info : Digital Theater Systems
Commercial name : DTS-HD Master Audio
Codec ID : A_DTS
Duration : 1 h 49 min
Bit rate mode : Variable
Bit rate : 3 762 kb/s
Channel(s) : 6 channels
Channel layout : C L R Ls Rs LFE
Sampling rate : 48.0 kHz
Frame rate : 93.750 FPS (512 SPF)
Bit depth : 24 bits
Compression mode : Lossless
Stream size : 2.87 GiB (10%)
Title : The.Lighthouse.2019.1080p.BluRay.REMUX.AVC.DTS-HD.MA.5.1-FGT
Language : English
Default : Yes
Forced : No

Audio #2
ID : 3
Format : AC-3
Format/Info : Audio Coding 3
Commercial name : Dolby Digital
Codec ID : A_AC3
Duration : 1 h 49 min
Bit rate mode : Constant
Bit rate : 192 kb/s
Channel(s) : 2 channels
Channel layout : L R
Sampling rate : 48.0 kHz
Frame rate : 31.250 FPS (1536 SPF)
Bit depth : 16 bits
Compression mode : Lossy
Stream size : 150 MiB (0%)
Title : The.Lighthouse.2019.1080p.BluRay.REMUX.AVC.DTS-HD.MA.5.1-FGT
Language : English
Service kind : Complete Main
Default : No
Forced : No

Text #1
ID : 4
Format : UTF-8
Codec ID : S_TEXT/UTF8
Codec ID/Info : UTF-8 Plain Text
Duration : 1 h 36 min
Bit rate : 33 b/s
Count of elements : 763
Stream size : 23.6 KiB (0%)
Title : English-SRT
Language : English
Default : Yes
Forced : No

Text #2
ID : 5
Format : PGS
Muxing mode : zlib
Codec ID : S_HDMV/PGS
Codec ID/Info : Picture based subtitle format used on BDs/HD-DVDs
Duration : 1 h 45 min
Bit rate : 26.3 kb/s
Count of elements : 2052
Stream size : 19.9 MiB (0%)
Title : English-PGS
Language : English
Default : No
Forced : No

Text #3
ID : 6
Format : PGS
Muxing mode : zlib
Codec ID : S_HDMV/PGS
Codec ID/Info : Picture based subtitle format used on BDs/HD-DVDs
Duration : 1 h 41 min
Bit rate : 21.5 kb/s
Count of elements : 1578
Stream size : 15.6 MiB (0%)
Title : Spanish-PGS
Language : Spanish
Default : No
Forced : No

Menu
00:00:00.000 : en:Chapter 01
00:06:49.534 : en:Chapter 02
00:11:47.957 : en:Chapter 03
00:13:44.949 : en:Chapter 04
00:19:52.900 : en:Chapter 05
00:25:33.949 : en:Chapter 06
00:29:54.793 : en:Chapter 07
00:36:23.181 : en:Chapter 08
00:41:28.652 : en:Chapter 09
00:51:00.307 : en:Chapter 10
00:55:48.303 : en:Chapter 11
01:03:43.694 : en:Chapter 12
01:09:40.718 : en:Chapter 13
01:19:01.820 : en:Chapter 14
01:24:46.706 : en:Chapter 15
01:39:42.601 : en:Chapter 16



游客,如果您要查看本帖隱藏內容請回復,如果您想無廣告、免回復、下載附件免影視幣請開通VIP:VIP傳送門


古哥影視論壇www.tdtiyl.tw 高清電影,藍光電影,最新電影,電影天堂,影視帝國,人人影視
2#
發表于 2020-1-8 23:33:57 | 只看該作者
感謝分享,下載看看
古哥影視論壇www.tdtiyl.tw 高清電影,藍光電影,最新電影,電影天堂,影視帝國,人人影視
回復 支持 反對

使用道具 舉報

3#
發表于 2020-1-8 23:45:15 | 只看該作者
樓主太厲害了!樓主,I*老*虎*U!古哥影視絕對是電影愛好的天堂!





......
古哥影視論壇www.tdtiyl.tw 高清電影,藍光電影,最新電影,電影天堂,影視帝國,人人影視
回復 支持 反對

使用道具 舉報

4#
發表于 2020-1-8 23:54:33 | 只看該作者
[燈塔]The.Lighthouse.2019.1080p.BluRay.REMUX.AVC.DTS-HD.MA.5.1-FGT 29.52GB [修改]
古哥影視論壇www.tdtiyl.tw 高清電影,藍光電影,最新電影,電影天堂,影視帝國,人人影視
回復 支持 反對

使用道具 舉報

5#
發表于 2020-1-9 00:15:45 | 只看該作者
感謝樓主的分享啊!
古哥影視論壇www.tdtiyl.tw 高清電影,藍光電影,最新電影,電影天堂,影視帝國,人人影視
回復 支持 反對

使用道具 舉報

6#
發表于 2020-1-9 00:55:46 | 只看該作者
樓主發貼辛苦了,謝謝樓主分享!我覺得古哥影視的電影是最值得收藏的!
古哥影視論壇www.tdtiyl.tw 高清電影,藍光電影,最新電影,電影天堂,影視帝國,人人影視
回復 支持 反對

使用道具 舉報

7#
發表于 2020-1-9 08:36:17 | 只看該作者
又一部高分電影啊!
古哥影視論壇www.tdtiyl.tw 高清電影,藍光電影,最新電影,電影天堂,影視帝國,人人影視
回復 支持 反對

使用道具 舉報

8#
發表于 2020-1-9 09:05:31 | 只看該作者
古哥影視論壇www.tdtiyl.tw 高清電影,藍光電影,最新電影,電影天堂,影視帝國,人人影視
回復 支持 反對

使用道具 舉報

10#
發表于 2020-1-9 10:30:26 | 只看該作者

我看不錯噢 謝謝樓主!古哥影視越來越好,高清電影還得上這來下載!
古哥影視論壇www.tdtiyl.tw 高清電影,藍光電影,最新電影,電影天堂,影視帝國,人人影視
回復 支持 反對

使用道具 舉報

11#
發表于 2020-1-9 18:07:07 | 只看該作者
感謝樓主分享!永遠支持古哥影視
古哥影視論壇www.tdtiyl.tw 高清電影,藍光電影,最新電影,電影天堂,影視帝國,人人影視
回復 支持 反對

使用道具 舉報

13#
發表于 2020-1-9 20:14:08 | 只看該作者

這東西我收了!謝謝樓主!古哥影視真好!一定要堅持下去,支持不住時請讓大家捐助
古哥影視論壇www.tdtiyl.tw 高清電影,藍光電影,最新電影,電影天堂,影視帝國,人人影視
回復 支持 反對

使用道具 舉報

14#
發表于 2020-1-9 20:19:20 | 只看該作者

我看不錯噢 謝謝樓主!古哥影視越來越好,高清電影還得上這來下載!
古哥影視論壇www.tdtiyl.tw 高清電影,藍光電影,最新電影,電影天堂,影視帝國,人人影視
回復 支持 反對

使用道具 舉報

15#
發表于 2020-1-9 23:09:26 | 只看該作者
好片,得支持一下
古哥影視論壇www.tdtiyl.tw 高清電影,藍光電影,最新電影,電影天堂,影視帝國,人人影視
回復 支持 反對

使用道具 舉報

16#
發表于 2020-1-10 10:10:29 | 只看該作者
好片,得支持一下
古哥影視論壇www.tdtiyl.tw 高清電影,藍光電影,最新電影,電影天堂,影視帝國,人人影視
回復 支持 反對

使用道具 舉報

17#
發表于 2020-1-10 12:35:19 | 只看該作者
感謝樓主的分享啊!
古哥影視論壇www.tdtiyl.tw 高清電影,藍光電影,最新電影,電影天堂,影視帝國,人人影視
回復 支持 反對

使用道具 舉報

18#
發表于 2020-1-10 17:31:14 | 只看該作者

既然你誠信誠意的推薦了,那我就勉為其難的看看吧!愛電影,愛生活古哥影視不走平凡路。
古哥影視論壇www.tdtiyl.tw 高清電影,藍光電影,最新電影,電影天堂,影視帝國,人人影視
回復 支持 反對

使用道具 舉報

19#
發表于 2020-1-10 21:41:02 | 只看該作者
樓主發貼辛苦了,謝謝樓主分享!我覺得古哥影視的電影是最值得收藏的!
古哥影視論壇www.tdtiyl.tw 高清電影,藍光電影,最新電影,電影天堂,影視帝國,人人影視
回復 支持 反對

使用道具 舉報

20#
發表于 2020-1-10 23:33:47 | 只看該作者

我看不錯噢 謝謝樓主!古哥影視越來越好,高清電影還得上這來下載!
古哥影視論壇www.tdtiyl.tw 高清電影,藍光電影,最新電影,電影天堂,影視帝國,人人影視
回復 支持 反對

使用道具 舉報

懶得打字嘛,點擊右側快捷回復->
您需要登錄后才可以回帖 登錄 | 注冊(分享大片)

本版積分規則

影視帝國免責聲明
本站提供網上學習交流和自由討論使用,所有資源均來自互聯網公開渠道,發布和個人言論并不代表本站立場,本站不負任何責任.
如發現有侵權行為,請與我們聯系.我們將立刻從網站上刪除,并向所有持版權者致最深歉意.
影視帝國論壇已經安全運行

QQ|小黑屋|手機版|Archiver|古哥論壇

GMT+8, 2020-1-30 02:10 , Processed in 0.240520 second(s), 24 queries , Gzip On.

Powered by Discuz! X3.4

© 2001-2017 Comsenz Inc.

快速回復 返回頂部 返回列表
6肖中特期期准最新