古哥論壇

 找回密碼
 注冊(分享大片)
查看: 562|回復: 14
打印 上一主題 下一主題

[白爛賤客2]2019.1080p.BluRay.REMUX.AVC.DTS-HD.MA.5.1-FGT 27.79GB

[復制鏈接]
跳轉到指定樓層
1#
發表于 2020-1-13 20:50:49 | 只看該作者 回帖獎勵 |倒序瀏覽 |閱讀模式
4K天堂


◎譯  名 白爛賤客2 / 杰與沉默鮑勃重啟 / 白爛賤客續集 / 白爛賤客重啟
◎片  名 Jay and Silent Bob Reboot
◎年  代 2019
◎產  地 美國
◎類  別 喜劇
◎語  言 英語
◎上映日期 2019-10-15(美國)
◎IMDb評分 6.3/10 from 2732 users
◎IMDb鏈接 https://www.imdb.com/title/tt6521876
◎豆瓣評分 0/10 from 0 users
◎藍光高清   http://www.4ktt.com
◎片  長 95分鐘
◎導  演 凱文·史密斯 Kevin Smith
◎編  劇 凱文·史密斯 Kevin Smith
◎主  演 凱文·史密斯 Kevin Smith
      杰森·繆斯 Jason Mewes
      本·阿弗萊克 Ben Affleck
      馬特·達蒙 Matt Damon
      克里斯·海姆斯沃斯 Chris Hemsworth
      喬·曼根尼羅 Joe Manganiello
      羅莎里奧·道森 Rosario Dawson
      梅莉莎·班諾伊 Melissa Benoist
      格蘭特·古斯汀 Grant Gustin
      賈斯汀·朗 Justin Long
      莎諾·伊麗莎白 Shannon Elizabeth
      喬伊·勞倫·亞當斯 Joey Lauren Adams
      杰森·李 Jason Lee
      凱特·米庫奇 Kate Micucci
      賈森·比格斯 Jason Biggs
      哈莉·奎恩·史密斯 Harley Quinn Smith
      方·基默 Val Kilmer
      大衛·達斯馬齊連 David Dastmalchian
      詹姆斯·范德比克 James Van Der Beek
      戴德里克·巴德 Diedrich Bader
      湯姆·卡瓦納夫 Tom Cavanagh
      弗蘭西斯·肖 Frances Shaw
      約瑟夫·D·雷特曼 Joseph D. Reitman
      克雷格·羅賓森 Craig Robinson
      莫莉·香儂 Molly Shannon
      詹妮弗·斯沃巴奇·史密斯 Jennifer Schwalbach Smith
      馬索·曼恩 Method Man
      杰夫·蔡斯 Jeff Chase
      湯米·鐘 Tommy Chong
      卡洛斯·瓦爾德斯 Carlos Valdes
      Aparna Brielle
      布萊恩·奧哈羅蘭 Brian O'Halloran
      拉爾夫·加曼 Ralph Garman
      克里斯·杰里科 Chris Jericho
      杰克·理查德森 Jake Richardson
      萊德曼 Redman
      唐尼爾·羅林斯 Donnell Rawlings
      比利·斯洛特 Billy Slaughter
      愛麗絲·溫 Alice Wen
      Treshelle Edmond
      Lex Lybrand
      Eric Rhoades

◎簡  介
  The story finds Jason Mewes' Jay and Smith's Silent Bob learning that a studio wants to reboot the Bluntman And Chronic movie that was based on the comic inspired by the two stoners. And they're not happy. Again. So begins a cross-country quest to shut it down.
Video
ID : 1
Format : AVC
Format/Info : Advanced Video Codec
Format profile : [email protected]
Format settings : CABAC / 4 Ref Frames
Format settings, CABAC : Yes
Format settings, Reference frames : 4 frames
Codec ID : V_MPEG4/ISO/AVC
Duration : 1 h 45 min
Bit rate mode : Variable
Bit rate : 33.9 Mb/s
Maximum bit rate : 37.0 Mb/s
Width : 1 920 pixels
Height : 1 080 pixels
Display aspect ratio : 16:9
Frame rate mode : Constant
Frame rate : 23.976 (24000/1001) FPS
Color space : YUV
Chroma subsampling : 4:2:0
Bit depth : 8 bits
Scan type : Progressive
Bits/(Pixel*Frame) : 0.681
Stream size : 24.9 GiB (90%)
Title : Jay.and.Silent.Bob.Reboot.2019.1080p.BluRay.REMUX.AVC.DTS-HD.MA.5.1-FGT
Language : English
Default : No
Forced : No

Audio
ID : 2
Format : DTS XLL
Format/Info : Digital Theater Systems
Commercial name : DTS-HD Master Audio
Codec ID : A_DTS
Duration : 1 h 45 min
Bit rate mode : Variable
Bit rate : 3 847 kb/s
Channel(s) : 6 channels
Channel layout : C L R Ls Rs LFE
Sampling rate : 48.0 kHz
Frame rate : 93.750 FPS (512 SPF)
Bit depth : 24 bits
Compression mode : Lossless
Stream size : 2.83 GiB (10%)
Title : Jay.and.Silent.Bob.Reboot.2019.1080p.BluRay.REMUX.AVC.DTS-HD.MA.5.1-FGT
Language : English
Default : Yes
Forced : No

Text #1
ID : 3
Format : UTF-8
Codec ID : S_TEXT/UTF8
Codec ID/Info : UTF-8 Plain Text
Duration : 1 h 43 min
Bit rate : 87 b/s
Count of elements : 1886
Stream size : 66.3 KiB (0%)
Title : English-SRT
Language : English
Default : Yes
Forced : No

Text #2
ID : 4
Format : PGS
Muxing mode : zlib
Codec ID : S_HDMV/PGS
Codec ID/Info : Picture based subtitle format used on BDs/HD-DVDs
Duration : 1 h 44 min
Bit rate : 67.9 kb/s
Count of elements : 3936
Stream size : 50.5 MiB (0%)
Language : English
Default : No
Forced : No

Text #3
ID : 5
Format : PGS
Muxing mode : zlib
Codec ID : S_HDMV/PGS
Codec ID/Info : Picture based subtitle format used on BDs/HD-DVDs
Duration : 1 h 43 min
Bit rate : 59.9 kb/s
Count of elements : 3629
Stream size : 44.3 MiB (0%)
Language : Spanish
Default : No
Forced : No

Menu
00:00:00.000 : en:Chapter 01
00:03:38.676 : en:Chapter 02
00:09:30.653 : en:Chapter 03
00:16:32.658 : en:Chapter 04
00:24:10.323 : en:Chapter 05
00:30:43.633 : en:Chapter 06
00:40:34.014 : en:Chapter 07
00:44:53.941 : en:Chapter 08
00:48:46.715 : en:Chapter 09
00:54:34.020 : en:Chapter 10
00:59:27.146 : en:Chapter 11
01:07:03.227 : en:Chapter 12
01:10:01.697 : en:Chapter 13
01:16:08.480 : en:Chapter 14
01:25:37.215 : en:Chapter 15
01:32:39.762 : en:Chapter 16




游客,如果您要查看本帖隱藏內容請回復,如果您想無廣告、免回復、下載附件免影視幣請開通VIP:VIP傳送門


古哥影視論壇www.tdtiyl.tw 高清電影,藍光電影,最新電影,電影天堂,影視帝國,人人影視
2#
發表于 2020-1-13 20:58:35 | 只看該作者

這東西我收了!謝謝樓主!古哥影視真好!一定要堅持下去,支持不住時請讓大家捐助
古哥影視論壇www.tdtiyl.tw 高清電影,藍光電影,最新電影,電影天堂,影視帝國,人人影視
回復 支持 反對

使用道具 舉報

3#
發表于 2020-1-13 21:11:50 | 只看該作者
樓主太厲害了!樓主,I*老*虎*U!古哥影視絕對是電影愛好的天堂!





......
古哥影視論壇www.tdtiyl.tw 高清電影,藍光電影,最新電影,電影天堂,影視帝國,人人影視
回復 支持 反對

使用道具 舉報

4#
發表于 2020-1-13 23:09:09 | 只看該作者

感謝樓主的無私分享!要想古哥影視好,就靠你我他!
古哥影視論壇www.tdtiyl.tw 高清電影,藍光電影,最新電影,電影天堂,影視帝國,人人影視
回復 支持 反對

使用道具 舉報

5#
發表于 2020-1-14 00:02:58 | 只看該作者
樓主發貼辛苦了,謝謝樓主分享!我覺得古哥影視的電影是最值得收藏的!
古哥影視論壇www.tdtiyl.tw 高清電影,藍光電影,最新電影,電影天堂,影視帝國,人人影視
回復 支持 反對

使用道具 舉報

6#
發表于 2020-1-14 00:15:32 | 只看該作者
感謝樓主的分享啊!
古哥影視論壇www.tdtiyl.tw 高清電影,藍光電影,最新電影,電影天堂,影視帝國,人人影視
回復 支持 反對

使用道具 舉報

7#
發表于 2020-1-14 01:29:16 | 只看該作者
感謝樓主分享資源
古哥影視論壇www.tdtiyl.tw 高清電影,藍光電影,最新電影,電影天堂,影視帝國,人人影視
回復 支持 反對

使用道具 舉報

8#
發表于 2020-1-14 10:39:22 | 只看該作者
感謝樓主分享!永遠支持古哥影視
古哥影視論壇www.tdtiyl.tw 高清電影,藍光電影,最新電影,電影天堂,影視帝國,人人影視
回復 支持 反對

使用道具 舉報

9#
發表于 2020-1-14 23:29:06 | 只看該作者
樓主發貼辛苦了,謝謝樓主分享!我覺得古哥影視的電影是最值得收藏的!
古哥影視論壇www.tdtiyl.tw 高清電影,藍光電影,最新電影,電影天堂,影視帝國,人人影視
回復 支持 反對

使用道具 舉報

10#
發表于 2020-1-16 16:24:59 | 只看該作者
樓主發貼辛苦了,謝謝樓主分享!我覺得古哥影視的電影是最值得收藏的!
古哥影視論壇www.tdtiyl.tw 高清電影,藍光電影,最新電影,電影天堂,影視帝國,人人影視
回復 支持 反對

使用道具 舉報

12#
發表于 2020-1-17 19:20:43 | 只看該作者
樓主發貼辛苦了,謝謝樓主分享!我覺得古哥影視的電影是最值得收藏的!
古哥影視論壇www.tdtiyl.tw 高清電影,藍光電影,最新電影,電影天堂,影視帝國,人人影視
回復 支持 反對

使用道具 舉報

13#
發表于 2020-1-17 21:17:08 | 只看該作者
樓主發貼辛苦了,謝謝樓主分享!我覺得古哥影視的電影是最值得收藏的!
古哥影視論壇www.tdtiyl.tw 高清電影,藍光電影,最新電影,電影天堂,影視帝國,人人影視
回復 支持 反對

使用道具 舉報

14#
發表于 2020-1-21 09:20:54 | 只看該作者

這東西我收了!謝謝樓主!古哥影視真好!一定要堅持下去,支持不住時請讓大家捐助
古哥影視論壇www.tdtiyl.tw 高清電影,藍光電影,最新電影,電影天堂,影視帝國,人人影視
回復 支持 反對

使用道具 舉報

15#
發表于 3 天前 | 只看該作者
感謝樓主的無私分享!要想古哥影視好,就靠你我他!
古哥影視論壇www.tdtiyl.tw 高清電影,藍光電影,最新電影,電影天堂,影視帝國,人人影視
回復 支持 反對

使用道具 舉報

懶得打字嘛,點擊右側快捷回復->
您需要登錄后才可以回帖 登錄 | 注冊(分享大片)

本版積分規則

影視帝國免責聲明
本站提供網上學習交流和自由討論使用,所有資源均來自互聯網公開渠道,發布和個人言論并不代表本站立場,本站不負任何責任.
如發現有侵權行為,請與我們聯系.我們將立刻從網站上刪除,并向所有持版權者致最深歉意.
影視帝國論壇已經安全運行

QQ|小黑屋|手機版|Archiver|古哥論壇

GMT+8, 2020-1-30 01:28 , Processed in 0.217933 second(s), 19 queries , Gzip On.

Powered by Discuz! X3.4

© 2001-2017 Comsenz Inc.

快速回復 返回頂部 返回列表
6肖中特期期准最新