古哥論壇

 找回密碼
 注冊(分享大片)
查看: 584|回復: 10
打印 上一主題 下一主題

[亞當斯一家]2019.1080p.BluRay.REMUX.AVC.DTS-HD.MA.7.1-FGT 22.32GB

[復制鏈接]
跳轉到指定樓層
1#
發表于 2020-1-13 20:52:29 | 只看該作者 回帖獎勵 |倒序瀏覽 |閱讀模式
4K天堂
本帖最后由 人人影視 于 2020-1-13 20:55 編輯



◎譯  名 亞當斯一家 / 愛登士家庭(港) / 阿達一族
◎片  名 The Addams Family
◎年  代 2019
◎產  地 美國 / 英國 / 加拿大
◎類  別 喜劇 / 動畫 / 家庭 / 奇幻
◎語  言 英語
◎上映日期 2019-10-11(美國)
◎IMDb評分 5.8/10 from 11808 users
◎IMDb鏈接 https://www.imdb.com/title/tt1620981
◎豆瓣評分 6.6/10 from 2585 users
◎藍光高清   http://www.4ktt.com
◎片  長 87分鐘
◎導  演 格雷格·蒂曼 Greg Tiernan / 康拉德·弗農 Conrad Vernon
◎編  劇 馬特·利伯曼 Matt Lieberman / 查爾斯·亞當斯 Charles Addams / 帕米拉·帕特勒 Pamela Pettler
◎主  演 查理茲·塞隆 Charlize Theron
      科洛·莫瑞茲 Chlo? Grace Moretz
      奧斯卡·伊薩克 Oscar Isaac
      菲恩·伍法德 Finn Wolfhard
      艾莉森·珍妮 Allison Janney
      埃美·加西亞 Aimee Garcia
      尼克·克羅爾 Nick Kroll
      艾爾西·費舍爾 Elsie Fisher
      貝特·米德勒 Bette Midler
      斯科特?安德伍德 Scott Underwood

◎簡  介
  米高梅定格動畫版《亞當斯一家》組建團隊,除此前確定的奧斯卡·伊薩克,查理茲·塞隆、艾莉森·珍妮、科洛·莫瑞茲、菲恩·伍法德、尼克·克羅爾、貝特·邁德爾也加盟。講述一個詭異古怪的家庭與一個狡猾的真人秀主持人對峙,這個家庭同時也在為新生命的到來做準備,將舉辦一場亞當斯式的慶祝派對。
  伊薩克和塞隆為戈麥斯&莫提西亞·亞當斯夫婦配音,莫瑞茲配Wednesday ,伍法德配Pugsley ,邁德爾配祖母,克羅爾配Fester叔叔,珍妮配反派Margaux Needler。
  康拉德·弗農(《香腸派對》《馬達加斯加3》《怪物史瑞克2》)和格雷格·蒂曼(《香腸派對》)執導,漫畫家、該系列電視劇、電影的制作人查爾斯·亞當斯和Matt Lieberman、Pamela Pettler(《僵尸新娘》《怪獸屋》《機器人9號》)共同編寫劇本,北美2019年10月11日北美上映。
  原版漫畫由查爾斯·亞當斯創作,圍繞戈麥斯&莫提西亞·亞當斯夫婦及他們的孩子Wednesday、Pugsley和一群親戚展開故事。亞當斯一家屬于典型哥特式家庭,富有但古怪,親人之間的復雜關系和家產爭奪讓他們的生活陷入混亂之中。1964年首次被改編成真人版電視劇,之后又陸續開發了動畫版,三部真人電影分別于1991、1993、1998年上映,還被改編成音樂劇登陸百老匯。


◎獲獎情況
  第47屆動畫安妮獎(2020)
  最佳藝術指導(提名) 克里斯·蘇扎 / 余杰克 / 帕特里夏·阿奇森 / 瑪莎·摩爾
  最佳角色設計(提名)
Video
ID : 1
Format : AVC
Format/Info : Advanced Video Codec
Format profile : [email protected]
Format settings : CABAC / 2 Ref Frames
Format settings, CABAC : Yes
Format settings, Reference frames : 2 frames
Codec ID : V_MPEG4/ISO/AVC
Duration : 1 h 27 min
Bit rate mode : Variable
Bit rate : 29.3 Mb/s
Width : 1 920 pixels
Height : 1 080 pixels
Display aspect ratio : 16:9
Frame rate mode : Constant
Frame rate : 23.976 (24000/1001) FPS
Color space : YUV
Chroma subsampling : 4:2:0
Bit depth : 8 bits
Scan type : Progressive
Bits/(Pixel*Frame) : 0.589
Stream size : 17.8 GiB (80%)
Title : The.Addams.Family.2019.1080p.BluRay.REMUX.AVC.DTS-HD.MA.7.1-FGT
Language : English
Default : No
Forced : No

Audio #1
ID : 2
Format : DTS XLL
Format/Info : Digital Theater Systems
Commercial name : DTS-HD Master Audio
Codec ID : A_DTS
Duration : 1 h 27 min
Bit rate mode : Variable
Bit rate : 4 319 kb/s
Channel(s) : 8 channels
Channel layout : C L R LFE Lb Rb Lss Rss
Sampling rate : 48.0 kHz
Frame rate : 93.750 FPS (512 SPF)
Bit depth : 24 bits
Compression mode : Lossless
Stream size : 2.63 GiB (12%)
Title : The.Addams.Family.2019.1080p.BluRay.REMUX.AVC.DTS-HD.MA.7.1-FGT
Language : English
Default : Yes
Forced : No

Audio #2
ID : 3
Format : DTS XBR
Format/Info : Digital Theater Systems
Commercial name : DTS-HD High Resolution Audio
Codec ID : A_DTS
Duration : 1 h 27 min
Bit rate mode : Constant
Bit rate : 2 046 kb/s
Channel(s) : 8 channels
Channel layout : C L R LFE Lb Rb Lss Rss
Sampling rate : 48.0 kHz
Frame rate : 93.750 FPS (512 SPF)
Bit depth : 24 bits
Compression mode : Lossy
Stream size : 1.24 GiB (6%)
Title : The.Addams.Family.2019.1080p.BluRay.REMUX.AVC.DTS-HD.MA.7.1-FGT
Language : Spanish
Default : No
Forced : No

Audio #3
ID : 4
Format : DTS
Format/Info : Digital Theater Systems
Codec ID : A_DTS
Duration : 1 h 27 min
Bit rate mode : Constant
Bit rate : 768 kb/s
Channel(s) : 6 channels
Channel layout : C L R Ls Rs LFE
Sampling rate : 48.0 kHz
Frame rate : 93.750 FPS (512 SPF)
Bit depth : 24 bits
Compression mode : Lossy
Stream size : 478 MiB (2%)
Title : The.Addams.Family.2019.1080p.BluRay.REMUX.AVC.DTS-HD.MA.7.1-FGT
Language : French
Default : No
Forced : No

Audio #4
ID : 5
Format : AC-3
Format/Info : Audio Coding 3
Commercial name : Dolby Digital
Codec ID : A_AC3
Duration : 1 h 27 min
Bit rate mode : Constant
Bit rate : 192 kb/s
Channel(s) : 2 channels
Channel layout : L R
Sampling rate : 48.0 kHz
Frame rate : 31.250 FPS (1536 SPF)
Bit depth : 16 bits
Compression mode : Lossy
Stream size : 120 MiB (1%)
Title : The.Addams.Family.2019.1080p.BluRay.REMUX.AVC.DTS-HD.MA.7.1-FGT
Language : English
Service kind : Complete Main
Default : No
Forced : No

Text #1
ID : 6
Format : UTF-8
Codec ID : S_TEXT/UTF8
Codec ID/Info : UTF-8 Plain Text
Duration : 1 h 25 min
Bit rate : 69 b/s
Count of elements : 1436
Stream size : 43.3 KiB (0%)
Title : English-SRT
Language : English
Default : Yes
Forced : No

Text #2
ID : 7
Format : PGS
Muxing mode : zlib
Codec ID : S_HDMV/PGS
Codec ID/Info : Picture based subtitle format used on BDs/HD-DVDs
Duration : 1 h 25 min
Bit rate : 50.6 kb/s
Count of elements : 2812
Stream size : 31.1 MiB (0%)
Title : English-PGS
Language : English
Default : No
Forced : No

Text #3
ID : 8
Format : PGS
Muxing mode : zlib
Codec ID : S_HDMV/PGS
Codec ID/Info : Picture based subtitle format used on BDs/HD-DVDs
Duration : 1 h 25 min
Bit rate : 44.4 kb/s
Count of elements : 2504
Stream size : 27.2 MiB (0%)
Title : Spanish-PGS
Language : Spanish
Default : No
Forced : No

Text #4
ID : 9
Format : PGS
Muxing mode : zlib
Codec ID : S_HDMV/PGS
Codec ID/Info : Picture based subtitle format used on BDs/HD-DVDs
Duration : 1 h 25 min
Bit rate : 47.6 kb/s
Count of elements : 2460
Stream size : 29.3 MiB (0%)
Title : French-PGS
Language : French
Default : No
Forced : No

Text #5
ID : 10
Format : PGS
Muxing mode : zlib
Codec ID : S_HDMV/PGS
Codec ID/Info : Picture based subtitle format used on BDs/HD-DVDs
Duration : 1 h 25 min
Bit rate : 3 941 b/s
Count of elements : 228
Stream size : 2.41 MiB (0%)
Title : Spanish-FORCED-PGS
Language : Spanish
Default : No
Forced : No

Text #6
ID : 11
Format : PGS
Muxing mode : zlib
Codec ID : S_HDMV/PGS
Codec ID/Info : Picture based subtitle format used on BDs/HD-DVDs
Duration : 1 h 25 min
Bit rate : 5 270 b/s
Count of elements : 292
Stream size : 3.24 MiB (0%)
Title : French-FORCED-PGS
Language : French
Default : No
Forced : No

Menu
00:00:00.000 : en:Chapter 01
00:05:08.558 : en:Chapter 02
00:10:35.468 : en:Chapter 03
00:15:46.612 : en:Chapter 04
00:19:35.257 : en:Chapter 05
00:25:14.596 : en:Chapter 06
00:29:25.764 : en:Chapter 07
00:34:20.475 : en:Chapter 08
00:39:46.967 : en:Chapter 09
00:45:01.740 : en:Chapter 10
00:49:07.319 : en:Chapter 11
00:53:40.926 : en:Chapter 12
00:56:36.518 : en:Chapter 13
01:00:00.763 : en:Chapter 14
01:03:45.947 : en:Chapter 15
01:06:02.166 : en:Chapter 16
01:10:54.583 : en:Chapter 17
01:18:09.476 : en:Chapter 18
01:20:21.107 : en:Chapter 19
01:21:11.449 : en:Chapter 20




游客,如果您要查看本帖隱藏內容請回復,如果您想無廣告、免回復、下載附件免影視幣請開通VIP:VIP傳送門


古哥影視論壇www.tdtiyl.tw 高清電影,藍光電影,最新電影,電影天堂,影視帝國,人人影視
2#
發表于 2020-1-13 20:58:03 | 只看該作者

我看不錯噢 謝謝樓主!古哥影視越來越好,高清電影還得上這來下載!
古哥影視論壇www.tdtiyl.tw 高清電影,藍光電影,最新電影,電影天堂,影視帝國,人人影視
回復 支持 反對

使用道具 舉報

3#
發表于 2020-1-13 21:11:39 | 只看該作者
樓主發貼辛苦了,謝謝樓主分享!我覺得古哥影視的電影是最值得收藏的!





......
古哥影視論壇www.tdtiyl.tw 高清電影,藍光電影,最新電影,電影天堂,影視帝國,人人影視
回復 支持 反對

使用道具 舉報

4#
發表于 2020-1-14 00:18:31 | 只看該作者
感謝樓主的分享啊!
古哥影視論壇www.tdtiyl.tw 高清電影,藍光電影,最新電影,電影天堂,影視帝國,人人影視
回復 支持 反對

使用道具 舉報

5#
發表于 2020-1-14 01:31:57 | 只看該作者
感謝樓主分享影片
古哥影視論壇www.tdtiyl.tw 高清電影,藍光電影,最新電影,電影天堂,影視帝國,人人影視
回復 支持 反對

使用道具 舉報

7#
發表于 2020-1-14 10:04:38 | 只看該作者

這個帖子不回對不起自己!我想我是一天也不能離開古哥影視
古哥影視論壇www.tdtiyl.tw 高清電影,藍光電影,最新電影,電影天堂,影視帝國,人人影視
回復 支持 反對

使用道具 舉報

8#
發表于 2020-1-14 10:38:09 | 只看該作者
感謝樓主分享!永遠支持古哥影視
古哥影視論壇www.tdtiyl.tw 高清電影,藍光電影,最新電影,電影天堂,影視帝國,人人影視
回復 支持 反對

使用道具 舉報

9#
發表于 2020-1-14 18:53:23 | 只看該作者
vb就那么,電影,大家分享
古哥影視論壇www.tdtiyl.tw 高清電影,藍光電影,最新電影,電影天堂,影視帝國,人人影視
回復 支持 反對

使用道具 舉報

10#
發表于 2020-1-19 14:37:05 | 只看該作者
樓主發貼辛苦了,謝謝樓主分享!我覺得古哥影視的電影是最值得收藏的!
古哥影視論壇www.tdtiyl.tw 高清電影,藍光電影,最新電影,電影天堂,影視帝國,人人影視
回復 支持 反對

使用道具 舉報

11#
發表于 2020-1-19 23:38:34 | 只看該作者
感謝樓主分享資源
古哥影視論壇www.tdtiyl.tw 高清電影,藍光電影,最新電影,電影天堂,影視帝國,人人影視
回復 支持 反對

使用道具 舉報

懶得打字嘛,點擊右側快捷回復->
您需要登錄后才可以回帖 登錄 | 注冊(分享大片)

本版積分規則

影視帝國免責聲明
本站提供網上學習交流和自由討論使用,所有資源均來自互聯網公開渠道,發布和個人言論并不代表本站立場,本站不負任何責任.
如發現有侵權行為,請與我們聯系.我們將立刻從網站上刪除,并向所有持版權者致最深歉意.
影視帝國論壇已經安全運行

QQ|小黑屋|手機版|Archiver|古哥論壇

GMT+8, 2020-1-30 02:42 , Processed in 0.194996 second(s), 19 queries , Gzip On.

Powered by Discuz! X3.4

© 2001-2017 Comsenz Inc.

快速回復 返回頂部 返回列表
6肖中特期期准最新