古哥論壇

 找回密碼
 注冊(分享大片)
查看: 672|回復: 32
打印 上一主題 下一主題

[藍與黑]Black.and.Blue.2019.1080p.BluRay.REMUX.AVC.DTS-HD.MA.5.1-FGT 中字/24.8GB

[復制鏈接]
跳轉到指定樓層
1#
發表于 2020-1-15 22:57:50 | 只看該作者 回帖獎勵 |倒序瀏覽 |閱讀模式
4K天堂


◎譯  名 藍與黑 / Exposure / 黑與藍
◎片  名 Black and Blue
◎年  代 2019
◎產  地 美國
◎類  別 劇情 / 動作 / 驚悚 / 犯罪
◎語  言 英語
◎上映日期 2019-09-21(都市世界電影節) / 2019-10-25(美國)
◎IMDb評分 6.0/10 from 4412 users
◎IMDb鏈接 https://www.imdb.com/title/tt7390646
◎豆瓣評分 6.4/10 from 714 users
◎藍光高清   http://www.4ktt.com
◎片  長 108分鐘
◎導  演 德翁·泰勒 Deon Taylor
◎編  劇 彼得·A·道林 Peter A. Dowling
◎主  演 娜奧米·哈里斯 Naomie Harris
      弗蘭克·格里羅 Frank Grillo
      瑞德·斯科特 Reid Scott
      麥克·柯爾特 Mike Colter
      泰瑞斯·吉布森 Tyrese Gibson
      博·納普 Beau Knapp
      娜菲薩·威廉姆斯 Nafessa Williams
      邁克爾·帕帕約翰 Michael Papajohn
      納爾遜·波尼拉 Nelson Bonilla
      詹姆斯·摩西·布萊克 James Moses Black
      韋米蒂婭·埃拉恩 Vermyttya Erahn
      安東尼·邁克爾·弗雷德里克 Anthony Michael Frederick


◎簡  介
  娜奧米·哈里斯將主演警探題材驚悚片[藍與黑](Black And Blue,暫譯),德翁·泰勒([假日驚魂])執導,彼得·A·道林([空中危機])操刀劇本。故事講述一名新手警察(娜奧米飾)目睹了腐敗官員謀殺一名毒販的過程,而且她隨身攜帶的攝像頭錄下了這一幕。她從這些腐敗官員手里逃脫出來,陷入了被謀殺的危險境地。
Video
ID : 1
Format : AVC
Format/Info : Advanced Video Codec
Format profile : [email protected]
Format settings : CABAC / 2 Ref Frames
Format settings, CABAC : Yes
Format settings, Reference frames : 2 frames
Format settings, GOP : M=1, N=10
Codec ID : V_MPEG4/ISO/AVC
Duration : 1 h 47 min
Bit rate mode : Variable
Bit rate : 24.9 Mb/s
Width : 1 920 pixels
Height : 1 080 pixels
Display aspect ratio : 16:9
Frame rate mode : Constant
Frame rate : 23.976 (24000/1001) FPS
Color space : YUV
Chroma subsampling : 4:2:0
Bit depth : 8 bits
Scan type : Progressive
Bits/(Pixel*Frame) : 0.501
Stream size : 18.8 GiB (76%)
Title : Black.and.Blue.2019.1080p.BluRay.REMUX.AVC.DTS-HD.MA.5.1-FGT
Language : English
Default : No
Forced : No

Audio #1
ID : 2
Format : DTS XLL
Format/Info : Digital Theater Systems
Commercial name : DTS-HD Master Audio
Codec ID : A_DTS
Duration : 1 h 47 min
Bit rate mode : Variable
Bit rate : 2 206 kb/s
Channel(s) : 6 channels
Channel layout : C L R Ls Rs LFE
Sampling rate : 48.0 kHz
Frame rate : 93.750 FPS (512 SPF)
Bit depth : 16 bits
Compression mode : Lossless
Stream size : 1.66 GiB (7%)
Title : Black.and.Blue.2019.1080p.BluRay.REMUX.AVC.DTS-HD.MA.5.1-FGT
Language : English
Default : Yes
Forced : No

Audio #2
ID : 3
Format : AC-3
Format/Info : Audio Coding 3
Commercial name : Dolby Digital
Codec ID : A_AC3
Duration : 1 h 47 min
Bit rate mode : Constant
Bit rate : 640 kb/s
Channel(s) : 6 channels
Channel layout : L R C LFE Ls Rs
Sampling rate : 48.0 kHz
Frame rate : 31.250 FPS (1536 SPF)
Bit depth : 16 bits
Compression mode : Lossy
Stream size : 494 MiB (2%)
Title : Black.and.Blue.2019.1080p.BluRay.REMUX.AVC.DTS-HD.MA.5.1-FGT
Language : English
Service kind : Complete Main
Default : No
Forced : No

Audio #3
ID : 4
Format : AC-3
Format/Info : Audio Coding 3
Commercial name : Dolby Digital
Codec ID : A_AC3
Duration : 1 h 47 min
Bit rate mode : Constant
Bit rate : 640 kb/s
Channel(s) : 6 channels
Channel layout : L R C LFE Ls Rs
Sampling rate : 48.0 kHz
Frame rate : 31.250 FPS (1536 SPF)
Bit depth : 16 bits
Compression mode : Lossy
Stream size : 494 MiB (2%)
Title : Black.and.Blue.2019.1080p.BluRay.REMUX.AVC.DTS-HD.MA.5.1-FGT
Language : Czech
Service kind : Complete Main
Default : No
Forced : No

Audio #4
ID : 5
Format : AC-3
Format/Info : Audio Coding 3
Commercial name : Dolby Digital
Codec ID : A_AC3
Duration : 1 h 47 min
Bit rate mode : Constant
Bit rate : 640 kb/s
Channel(s) : 6 channels
Channel layout : L R C LFE Ls Rs
Sampling rate : 48.0 kHz
Frame rate : 31.250 FPS (1536 SPF)
Bit depth : 16 bits
Compression mode : Lossy
Stream size : 494 MiB (2%)
Title : Black.and.Blue.2019.1080p.BluRay.REMUX.AVC.DTS-HD.MA.5.1-FGT
Language : French
Service kind : Complete Main
Default : No
Forced : No

Audio #5
ID : 6
Format : DTS XLL
Format/Info : Digital Theater Systems
Commercial name : DTS-HD Master Audio
Codec ID : A_DTS
Duration : 1 h 47 min
Bit rate mode : Variable
Bit rate : 2 199 kb/s
Channel(s) : 6 channels
Channel layout : C L R Ls Rs LFE
Sampling rate : 48.0 kHz
Frame rate : 93.750 FPS (512 SPF)
Bit depth : 16 bits
Compression mode : Lossless
Stream size : 1.66 GiB (7%)
Title : Black.and.Blue.2019.1080p.BluRay.REMUX.AVC.DTS-HD.MA.5.1-FGT
Language : Italian
Default : No
Forced : No

Audio #6
ID : 7
Format : AC-3
Format/Info : Audio Coding 3
Commercial name : Dolby Digital
Codec ID : A_AC3
Duration : 1 h 47 min
Bit rate mode : Constant
Bit rate : 640 kb/s
Channel(s) : 6 channels
Channel layout : L R C LFE Ls Rs
Sampling rate : 48.0 kHz
Frame rate : 31.250 FPS (1536 SPF)
Bit depth : 16 bits
Compression mode : Lossy
Stream size : 494 MiB (2%)
Title : Black.and.Blue.2019.1080p.BluRay.REMUX.AVC.DTS-HD.MA.5.1-FGT
Language : Polish
Service kind : Complete Main
Default : No
Forced : No

Audio #7
ID : 8
Format : AC-3
Format/Info : Audio Coding 3
Commercial name : Dolby Digital
Codec ID : A_AC3
Duration : 1 h 47 min
Bit rate mode : Constant
Bit rate : 640 kb/s
Channel(s) : 6 channels
Channel layout : L R C LFE Ls Rs
Sampling rate : 48.0 kHz
Frame rate : 31.250 FPS (1536 SPF)
Bit depth : 16 bits
Compression mode : Lossy
Stream size : 494 MiB (2%)
Title : Black.and.Blue.2019.1080p.BluRay.REMUX.AVC.DTS-HD.MA.5.1-FGT
Language : Spanish
Service kind : Complete Main
Default : No
Forced : No

Text #1
ID : 9
Format : UTF-8
Codec ID : S_TEXT/UTF8
Codec ID/Info : UTF-8 Plain Text
Duration : 1 h 43 min
Bit rate : 50 b/s
Count of elements : 1453
Stream size : 38.2 KiB (0%)
Title : English-SRT
Language : English
Default : Yes
Forced : No

Text #2
ID : 10
Format : PGS
Muxing mode : zlib
Codec ID : S_HDMV/PGS
Codec ID/Info : Picture based subtitle format used on BDs/HD-DVDs
Duration : 1 h 45 min
Bit rate : 37.1 kb/s
Count of elements : 2941
Stream size : 28.0 MiB (0%)
Title : English-PGS
Language : English
Default : No
Forced : No

Text #3
ID : 11
Format : PGS
Muxing mode : zlib
Codec ID : S_HDMV/PGS
Codec ID/Info : Picture based subtitle format used on BDs/HD-DVDs
Duration : 1 h 43 min
Bit rate : 31.3 kb/s
Count of elements : 2490
Stream size : 23.1 MiB (0%)
Title : English-PGS
Language : English
Default : No
Forced : No

Text #4
ID : 12
Format : PGS
Muxing mode : zlib
Codec ID : S_HDMV/PGS
Codec ID/Info : Picture based subtitle format used on BDs/HD-DVDs
Duration : 1 h 45 min
Bit rate : 37.2 kb/s
Count of elements : 2941
Stream size : 28.0 MiB (0%)
Title : English-PGS
Language : English
Default : No
Forced : No

Text #5
ID : 13
Format : PGS
Muxing mode : zlib
Codec ID : S_HDMV/PGS
Codec ID/Info : Picture based subtitle format used on BDs/HD-DVDs
Duration : 1 h 43 min
Bit rate : 31.4 kb/s
Count of elements : 2490
Stream size : 23.1 MiB (0%)
Title : English-PGS
Language : English
Default : No
Forced : No

Text #6
ID : 14
Format : PGS
Muxing mode : zlib
Codec ID : S_HDMV/PGS
Codec ID/Info : Picture based subtitle format used on BDs/HD-DVDs
Duration : 1 h 47 min
Bit rate : 18.5 kb/s
Count of elements : 2526
Stream size : 14.3 MiB (0%)
Title : Arabic-PGS
Language : Arabic
Default : No
Forced : No

Text #7
ID : 15
Format : PGS
Muxing mode : zlib
Codec ID : S_HDMV/PGS
Codec ID/Info : Picture based subtitle format used on BDs/HD-DVDs
Duration : 1 h 47 min
Bit rate : 23.8 kb/s
Count of elements : 2528
Stream size : 18.3 MiB (0%)
Title : Bulgarian-PGS
Language : Bulgarian
Default : No
Forced : No

Text #8
ID : 16
Format : PGS
Muxing mode : zlib
Codec ID : S_HDMV/PGS
Codec ID/Info : Picture based subtitle format used on BDs/HD-DVDs
Duration : 1 h 47 min
Bit rate : 24.8 kb/s
Count of elements : 2520
Stream size : 19.1 MiB (0%)
Title : Chinese-PGS
Language : Chinese
Default : No
Forced : No

Text #9
ID : 17
Format : PGS
Muxing mode : zlib
Codec ID : S_HDMV/PGS
Codec ID/Info : Picture based subtitle format used on BDs/HD-DVDs
Duration : 1 h 47 min
Bit rate : 24.3 kb/s
Count of elements : 2522
Stream size : 18.7 MiB (0%)
Title : Chinese-PGS
Language : Chinese
Default : No
Forced : No

Text #10
ID : 18
Format : PGS
Muxing mode : zlib
Codec ID : S_HDMV/PGS
Codec ID/Info : Picture based subtitle format used on BDs/HD-DVDs
Duration : 1 h 47 min
Bit rate : 24.5 kb/s
Count of elements : 2518
Stream size : 18.9 MiB (0%)
Title : Croatian-PGS
Language : Croatian
Default : No
Forced : No

Text #11
ID : 19
Format : PGS
Muxing mode : zlib
Codec ID : S_HDMV/PGS
Codec ID/Info : Picture based subtitle format used on BDs/HD-DVDs
Duration : 1 h 47 min
Bit rate : 25.3 kb/s
Count of elements : 2534
Stream size : 19.5 MiB (0%)
Title : Czech-PGS
Language : Czech
Default : No
Forced : No

Text #12
ID : 20
Format : PGS
Muxing mode : zlib
Codec ID : S_HDMV/PGS
Codec ID/Info : Picture based subtitle format used on BDs/HD-DVDs
Duration : 1 h 45 min
Bit rate : 285 b/s
Count of elements : 32
Stream size : 220 KiB (0%)
Title : Czech-FORCED-PGS
Language : Czech
Default : No
Forced : No

Text #13
ID : 21
Format : PGS
Muxing mode : zlib
Codec ID : S_HDMV/PGS
Codec ID/Info : Picture based subtitle format used on BDs/HD-DVDs
Duration : 1 h 47 min
Bit rate : 18.9 kb/s
Count of elements : 2454
Stream size : 14.5 MiB (0%)
Title : French-PGS
Language : French
Default : No
Forced : No

Text #14
ID : 22
Format : PGS
Muxing mode : zlib
Codec ID : S_HDMV/PGS
Codec ID/Info : Picture based subtitle format used on BDs/HD-DVDs
Duration : 1 h 45 min
Bit rate : 192 b/s
Count of elements : 20
Stream size : 148 KiB (0%)
Title : French-FORCED-PGS
Language : French
Default : No
Forced : No

Text #15
ID : 23
Format : PGS
Muxing mode : zlib
Codec ID : S_HDMV/PGS
Codec ID/Info : Picture based subtitle format used on BDs/HD-DVDs
Duration : 1 h 43 min
Bit rate : 29.1 kb/s
Count of elements : 2518
Stream size : 21.5 MiB (0%)
Title : Greek-PGS
Language : Greek
Default : No
Forced : No

Text #16
ID : 24
Format : PGS
Muxing mode : zlib
Codec ID : S_HDMV/PGS
Codec ID/Info : Picture based subtitle format used on BDs/HD-DVDs
Duration : 1 h 47 min
Bit rate : 21.1 kb/s
Count of elements : 2526
Stream size : 16.2 MiB (0%)
Title : Hebrew-PGS
Language : Hebrew
Default : No
Forced : No

Text #17
ID : 25
Format : PGS
Muxing mode : zlib
Codec ID : S_HDMV/PGS
Codec ID/Info : Picture based subtitle format used on BDs/HD-DVDs
Duration : 1 h 47 min
Bit rate : 27.5 kb/s
Count of elements : 2530
Stream size : 21.2 MiB (0%)
Title : Hungarian-PGS
Language : Hungarian
Default : No
Forced : No

Text #18
ID : 26
Format : PGS
Muxing mode : zlib
Codec ID : S_HDMV/PGS
Codec ID/Info : Picture based subtitle format used on BDs/HD-DVDs
Duration : 1 h 47 min
Bit rate : 26.8 kb/s
Count of elements : 2382
Stream size : 20.6 MiB (0%)
Title : Icelandic-PGS
Language : Icelandic
Default : No
Forced : No

Text #19
ID : 27
Format : PGS
Muxing mode : zlib
Codec ID : S_HDMV/PGS
Codec ID/Info : Picture based subtitle format used on BDs/HD-DVDs
Duration : 1 h 47 min
Bit rate : 27.4 kb/s
Count of elements : 2518
Stream size : 21.1 MiB (0%)
Title : Italian-PGS
Language : Italian
Default : No
Forced : No

Text #20
ID : 28
Format : PGS
Muxing mode : zlib
Codec ID : S_HDMV/PGS
Codec ID/Info : Picture based subtitle format used on BDs/HD-DVDs
Duration : 1 h 47 min
Bit rate : 24.1 kb/s
Count of elements : 2968
Stream size : 18.5 MiB (0%)
Title : Korean-PGS
Language : Korean
Default : No
Forced : No

Text #21
ID : 29
Format : PGS
Muxing mode : zlib
Codec ID : S_HDMV/PGS
Codec ID/Info : Picture based subtitle format used on BDs/HD-DVDs
Duration : 1 h 47 min
Bit rate : 24.5 kb/s
Count of elements : 2522
Stream size : 18.9 MiB (0%)
Title : Polish-PGS
Language : Polish
Default : No
Forced : No

Text #22
ID : 30
Format : PGS
Muxing mode : zlib
Codec ID : S_HDMV/PGS
Codec ID/Info : Picture based subtitle format used on BDs/HD-DVDs
Duration : 1 h 47 min
Bit rate : 26.8 kb/s
Count of elements : 2522
Stream size : 20.6 MiB (0%)
Title : Portuguese-PGS
Language : Portuguese
Default : No
Forced : No

Text #23
ID : 31
Format : PGS
Muxing mode : zlib
Codec ID : S_HDMV/PGS
Codec ID/Info : Picture based subtitle format used on BDs/HD-DVDs
Duration : 1 h 47 min
Bit rate : 25.9 kb/s
Count of elements : 2510
Stream size : 19.9 MiB (0%)
Title : Portuguese-FORCED-PGS
Language : Portuguese
Default : No
Forced : No

Text #24
ID : 32
Format : PGS
Muxing mode : zlib
Codec ID : S_HDMV/PGS
Codec ID/Info : Picture based subtitle format used on BDs/HD-DVDs
Duration : 1 h 47 min
Bit rate : 24.8 kb/s
Count of elements : 2520
Stream size : 19.1 MiB (0%)
Title : Romanian-PGS
Language : Romanian
Default : No
Forced : No

Text #25
ID : 33
Format : PGS
Muxing mode : zlib
Codec ID : S_HDMV/PGS
Codec ID/Info : Picture based subtitle format used on BDs/HD-DVDs
Duration : 1 h 47 min
Bit rate : 23.2 kb/s
Count of elements : 2524
Stream size : 17.9 MiB (0%)
Title : Serbian-PGS
Language : Serbian
Default : No
Forced : No

Text #26
ID : 34
Format : PGS
Muxing mode : zlib
Codec ID : S_HDMV/PGS
Codec ID/Info : Picture based subtitle format used on BDs/HD-DVDs
Duration : 1 h 47 min
Bit rate : 26.2 kb/s
Count of elements : 2540
Stream size : 20.2 MiB (0%)
Title : Slovak-PGS
Language : Slovak
Default : No
Forced : No

Text #27
ID : 35
Format : PGS
Muxing mode : zlib
Codec ID : S_HDMV/PGS
Codec ID/Info : Picture based subtitle format used on BDs/HD-DVDs
Duration : 1 h 47 min
Bit rate : 22.8 kb/s
Count of elements : 2518
Stream size : 17.6 MiB (0%)
Title : Slovenian-PGS
Language : Slovenian
Default : No
Forced : No

Text #28
ID : 36
Format : PGS
Muxing mode : zlib
Codec ID : S_HDMV/PGS
Codec ID/Info : Picture based subtitle format used on BDs/HD-DVDs
Duration : 1 h 47 min
Bit rate : 25.9 kb/s
Count of elements : 2166
Stream size : 19.9 MiB (0%)
Title : Spanish-PGS
Language : Spanish
Default : No
Forced : No

Text #29
ID : 37
Format : PGS
Muxing mode : zlib
Codec ID : S_HDMV/PGS
Codec ID/Info : Picture based subtitle format used on BDs/HD-DVDs
Duration : 1 h 47 min
Bit rate : 27.1 kb/s
Count of elements : 2526
Stream size : 20.9 MiB (0%)
Title : Thai-PGS
Language : Thai
Default : No
Forced : No

Text #30
ID : 38
Format : PGS
Muxing mode : zlib
Codec ID : S_HDMV/PGS
Codec ID/Info : Picture based subtitle format used on BDs/HD-DVDs
Duration : 1 h 47 min
Bit rate : 26.9 kb/s
Count of elements : 2518
Stream size : 20.7 MiB (0%)
Title : Turkish-PGS
Language : Turkish
Default : No
Forced : No

Menu
00:00:00.000 : en:Chapter 01
00:05:25.908 : en:Chapter 02
00:10:36.886 : en:Chapter 03
00:16:38.330 : en:Chapter 04
00:23:32.994 : en:Chapter 05
00:30:25.281 : en:Chapter 06
00:39:08.763 : en:Chapter 07
00:47:23.549 : en:Chapter 08
00:55:04.009 : en:Chapter 09
01:01:54.544 : en:Chapter 10
01:09:42.386 : en:Chapter 11
01:17:41.573 : en:Chapter 12
01:21:47.152 : en:Chapter 13
01:24:41.367 : en:Chapter 14
01:30:23.709 : en:Chapter 15
01:40:20.931 : en:Chapter 16



游客,如果您要查看本帖隱藏內容請回復,如果您想無廣告、免回復、下載附件免影視幣請開通VIP:VIP傳送門


古哥影視論壇www.tdtiyl.tw 高清電影,藍光電影,最新電影,電影天堂,影視帝國,人人影視
2#
發表于 2020-1-15 23:42:07 | 只看該作者
我看不錯噢 謝謝樓主!古哥影視越來越好,高清電影還得上這來下載





......
古哥影視論壇www.tdtiyl.tw 高清電影,藍光電影,最新電影,電影天堂,影視帝國,人人影視
回復 支持 反對

使用道具 舉報

3#
發表于 2020-1-16 00:16:07 | 只看該作者
感謝樓主的分享啊!
古哥影視論壇www.tdtiyl.tw 高清電影,藍光電影,最新電影,電影天堂,影視帝國,人人影視
回復 支持 反對

使用道具 舉報

4#
發表于 2020-1-16 00:44:24 | 只看該作者
感謝樓主無私分享
古哥影視論壇www.tdtiyl.tw 高清電影,藍光電影,最新電影,電影天堂,影視帝國,人人影視
回復 支持 反對

使用道具 舉報

5#
發表于 2020-1-16 02:21:07 | 只看該作者
樓主發貼辛苦了,謝謝樓主分享!我覺得古哥影視的電影是最值得收藏的!
古哥影視論壇www.tdtiyl.tw 高清電影,藍光電影,最新電影,電影天堂,影視帝國,人人影視
回復 支持 反對

使用道具 舉報

7#
發表于 2020-1-16 10:12:48 | 只看該作者

其實我一直覺得樓主的品味不錯!呵呵!古哥影視真的太棒了,多年的高清電影都在這下載的!
古哥影視論壇www.tdtiyl.tw 高清電影,藍光電影,最新電影,電影天堂,影視帝國,人人影視
回復 支持 反對

使用道具 舉報

8#
發表于 2020-1-16 10:14:42 | 只看該作者
樓主發貼辛苦了,謝謝樓主分享!我覺得古哥影視的電影是最值得收藏的!
古哥影視論壇www.tdtiyl.tw 高清電影,藍光電影,最新電影,電影天堂,影視帝國,人人影視
回復 支持 反對

使用道具 舉報

9#
發表于 2020-1-16 10:47:18 | 只看該作者
感謝樓主分享!
古哥影視論壇www.tdtiyl.tw 高清電影,藍光電影,最新電影,電影天堂,影視帝國,人人影視
回復 支持 反對

使用道具 舉報

10#
發表于 2020-1-16 10:49:12 | 只看該作者

感謝樓主的分享啊!
古哥影視論壇www.tdtiyl.tw 高清電影,藍光電影,最新電影,電影天堂,影視帝國,人人影視
回復 支持 反對

使用道具 舉報

11#
發表于 2020-1-16 12:41:25 | 只看該作者
多謝樓主分享!!
古哥影視論壇www.tdtiyl.tw 高清電影,藍光電影,最新電影,電影天堂,影視帝國,人人影視
回復 支持 反對

使用道具 舉報

12#
發表于 2020-1-16 13:34:31 | 只看該作者
感謝樓主分享!永遠支持古哥影視
古哥影視論壇www.tdtiyl.tw 高清電影,藍光電影,最新電影,電影天堂,影視帝國,人人影視
回復 支持 反對

使用道具 舉報

13#
發表于 2020-1-16 14:46:49 | 只看該作者
這里總有精彩
古哥影視論壇www.tdtiyl.tw 高清電影,藍光電影,最新電影,電影天堂,影視帝國,人人影視
回復 支持 反對

使用道具 舉報

14#
發表于 2020-1-16 15:33:44 | 只看該作者

這東西我收了!謝謝樓主!古哥影視真好!一定要堅持下去,支持不住時請讓大家捐助
古哥影視論壇www.tdtiyl.tw 高清電影,藍光電影,最新電影,電影天堂,影視帝國,人人影視
回復 支持 反對

使用道具 舉報

15#
發表于 2020-1-16 16:21:40 | 只看該作者
多謝樓主分享資源
古哥影視論壇www.tdtiyl.tw 高清電影,藍光電影,最新電影,電影天堂,影視帝國,人人影視
回復 支持 反對

使用道具 舉報

16#
發表于 2020-1-16 16:25:45 | 只看該作者
樓主發貼辛苦了,謝謝樓主分享!我覺得古哥影視的電影是最值得收藏的!
古哥影視論壇www.tdtiyl.tw 高清電影,藍光電影,最新電影,電影天堂,影視帝國,人人影視
回復 支持 反對

使用道具 舉報

17#
發表于 2020-1-16 16:32:12 | 只看該作者
謝謝樓主分享
古哥影視論壇www.tdtiyl.tw 高清電影,藍光電影,最新電影,電影天堂,影視帝國,人人影視
回復 支持 反對

使用道具 舉報

18#
發表于 2020-1-16 20:34:59 | 只看該作者

這東西我收了!謝謝樓主!古哥影視真好!一定要堅持下去,支持不住時請讓大家捐助
古哥影視論壇www.tdtiyl.tw 高清電影,藍光電影,最新電影,電影天堂,影視帝國,人人影視
回復 支持 反對

使用道具 舉報

19#
發表于 2020-1-16 20:57:07 | 只看該作者
樓主發貼辛苦了,謝謝樓主分享!我覺得古哥影視的電影是最值得收藏的!
古哥影視論壇www.tdtiyl.tw 高清電影,藍光電影,最新電影,電影天堂,影視帝國,人人影視
回復 支持 反對

使用道具 舉報

20#
發表于 2020-1-16 22:16:33 | 只看該作者
thx for sharing oh hell yeah good
古哥影視論壇www.tdtiyl.tw 高清電影,藍光電影,最新電影,電影天堂,影視帝國,人人影視
回復 支持 反對

使用道具 舉報

懶得打字嘛,點擊右側快捷回復->
您需要登錄后才可以回帖 登錄 | 注冊(分享大片)

本版積分規則

影視帝國免責聲明
本站提供網上學習交流和自由討論使用,所有資源均來自互聯網公開渠道,發布和個人言論并不代表本站立場,本站不負任何責任.
如發現有侵權行為,請與我們聯系.我們將立刻從網站上刪除,并向所有持版權者致最深歉意.
影視帝國論壇已經安全運行

QQ|小黑屋|手機版|Archiver|古哥論壇

GMT+8, 2020-1-30 02:46 , Processed in 0.227875 second(s), 21 queries , Gzip On.

Powered by Discuz! X3.4

© 2001-2017 Comsenz Inc.

快速回復 返回頂部 返回列表
6肖中特期期准最新